Привал на болоте / Uppehaall i myrlandet (Ян Труэль / Jan Troell) [1965, Швеция, короткометражка, BDRemux 1080p] [Criterion Collection] Sub (Rus, Eng) + Original Swe


Статистика раздачи [Обновить пиров]
Размер:  3.62 GB   |    Зарегистрирован:  1 год 2 месяца   |    Скачан:  0 раз

Полного источника не было: Никогда

 
   
 
 
 

[Цитировать]

Привал на болоте / Uppehaall i myrlandet
Страна: Швеция
Жанр: короткометражка
Год выпуска: 1965
Продолжительность: 00:30:11
Перевод: Субтитры
Cубтитры: русские, английские
Оригинальная аудиодорожка: шведский-Режиссер: Ян Труэль / Jan Troell
В ролях: Макс фон Сюдов, Аллан Эдвалль, Карл Эрик Фленс
Описание: Новелла Труэля из совместной общескандинавской картины «4 х 4» (1965).
Вооруженный ломом Квист оставляет свою работу и отправляется в неизвестном направлении. Ноги приводят его в старую каменоломню, где он оказывается не в силах устоять перед странным желанием скатить огромный валун вниз, в долину...
Специальный диплом IV ММКФ.-Тип релиза: BDRemux 1080p [Har har du ditt liv 1966 1080p Blu-ray AVC LPCM 1.0-ESiR]
Контейнер: MKV
Видео: MPEG-4 AVC Video, 1920x1080 at 23.976 fps, 17000 kbps
Аудио: Swedish: 48 kHz, AC3, 1.0 ch, 192 kbps
Формат субтитров: softsub (SRT)
Сэмпл

MediaInfo

General
Unique ID : 228304335326499097427845292454716554180 (0xABC1D0CA1ACD5BE4928C870DE01EBBC4)
Complete name : Uppehaall i myrlandet.1965.Criterion.BDRemux. rutracker.mkv
Format : Matroska
Format version : Version 2
File size : 3.62 GiB
Duration : 30mn 10s
Overall bit rate mode : Variable
Overall bit rate : 17.2 Mbps
Movie name : Release for RuTracker
Writing application : mkvmerge v5.0.1 ('Es ist Sommer') built on Nov 6 2011 16:23:40
Writing library : libebml v1.2.2 + libmatroska v1.3.0
Video
ID : 1
Format : AVC
Format/Info : Advanced Video Codec
Format profile : High@L4.1
Format settings, CABAC : Yes
Format settings, ReFrames : 4 frames
Codec ID : V_MPEG4/ISO/AVC
Duration : 30mn 10s
Bit rate mode : Variable
Bit rate : 16.7 Mbps
Maximum bit rate : 37.0 Mbps
Width : 1 920 pixels
Height : 1 080 pixels
Display aspect ratio : 16:9
Frame rate mode : Constant
Frame rate : 23.976 fps
Color space : YUV
Chroma subsampling : 4:2:0
Bit depth : 8 bits
Scan type : Progressive
Bits/(Pixel*Frame) : 0.335
Stream size : 3.51 GiB (97%)
Title : Uppehaall i myrlandet.1965.Criterion.BDRemux. rutracker
Language : Swedish
Default : Yes
Forced : No
Audio
ID : 2
Format : AC-3
Format/Info : Audio Coding 3
Mode extension : CM (complete main)
Format settings, Endianness : Big
Codec ID : A_AC3
Duration : 30mn 10s
Bit rate mode : Constant
Bit rate : 192 Kbps
Channel(s) : 1 channel
Channel positions : Front: C
Sampling rate : 48.0 KHz
Bit depth : 16 bits
Compression mode : Lossy
Stream size : 41.4 MiB (1%)
Language : Swedish
Default : Yes
Forced : No
Text #1
ID : 3
Format : UTF-8
Codec ID : S_TEXT/UTF8
Codec ID/Info : UTF-8 Plain Text
Language : Russian
Default : Yes
Forced : No
Text #2
ID : 4
Format : UTF-8
Codec ID : S_TEXT/UTF8
Codec ID/Info : UTF-8 Plain Text
Language : English
Default : No
Forced : No

Скриншоты

[teatrix.ru].t3871.torrent 
Торрент: Зарегистрирован [ 2015-10-07 12:13 ] · A98093E2D5B18752F4C79C3A7253563161EBB585

Скачать .torrent

Скачать

19 KB

Статус: проверено
Скачан: 0 раз
Размер: 3.62 GB
terms.php



Быстрый ответ

Имя:

      
Для отправки сообщений необходимо включить JavaScript
Показать сообщения:    

Текущее время: 08-Дек 09:03

Часовой пояс: UTC + 3


Вы можете начинать темы
Вы можете отвечать на сообщения
Вы не можете редактировать свои сообщения
Вы не можете удалять свои сообщения
Вы не можете голосовать в опросах
Вы не можете прикреплять файлы к сообщениям
Вы можете скачивать файлы