Веселое воскресенье / Gai dimanche (Жак Тати, Жак Берр / Jacques Tati, Jacques Berr) [1935, Франция, короткометражка, комедия, BDRemux 1080p] [Criterion Collection] Sub (Rus, Eng) + Original Fre


Статистика раздачи [Обновить пиров]
Размер:  4.88 GB   |    Зарегистрирован:  1 год 1 месяц   |    Скачан:  0 раз

Полного источника не было: Никогда

 
   
 
 
 

[Цитировать]

Веселое воскресенье / Gai dimanche
Страна: Франция
Жанр: короткометражка, комедия
Год выпуска: 1935
Продолжительность: 00:21:31
Перевод: Субтитры
Cубтитры: русские, английские
Оригинальная аудиодорожка: французский-Режиссер: Жак Тати, Жак Берр / Jacques Tati, Jacques Berr
В ролях: Жак Тати, Rhum
Описание: В этой короткометражке Тати обратился к излюбленной теме "бездарно проведенного досуга".
IMDb || КиноПоиск-Тип релиза: BDRemux 1080p
Контейнер: MKV
Видео: MPEG-4 AVC Video, 1920x1080 at 23.976 fps, 32490 kbps
Аудио: French: 48 kHz, AC3, 1.0 ch, 192 kbps
Формат субтитров: softsub (SRT)
Сэмпл

MediaInfo

General
Unique ID : 210055103561350260738755037853352391444 (0x9E07243244675FAD886193AC4FD2F314)
Complete name : Gai.dimanche.1935.Criterion.BDRemux. rutracker.mkv
Format : Matroska
Format version : Version 2
File size : 4.88 GiB
Duration : 21mn 30s
Overall bit rate mode : Variable
Overall bit rate : 32.5 Mbps
Movie name : Release for RuTracker
Writing application : mkvmerge v5.0.1 ('Es ist Sommer') built on Nov 6 2011 16:23:40
Writing library : libebml v1.2.2 + libmatroska v1.3.0
Video
ID : 1
Format : AVC
Format/Info : Advanced Video Codec
Format profile : High@L4.1
Format settings, CABAC : Yes
Format settings, ReFrames : 4 frames
Codec ID : V_MPEG4/ISO/AVC
Duration : 21mn 30s
Bit rate mode : Variable
Bit rate : 31.6 Mbps
Maximum bit rate : 37.0 Mbps
Width : 1 920 pixels
Height : 1 080 pixels
Display aspect ratio : 16:9
Frame rate mode : Constant
Frame rate : 23.976 fps
Color space : YUV
Chroma subsampling : 4:2:0
Bit depth : 8 bits
Scan type : Progressive
Bits/(Pixel*Frame) : 0.636
Stream size : 4.75 GiB (97%)
Title : Gai.dimanche.1935.Criterion.BDRemux. rutracker
Language : French
Default : Yes
Forced : No
Audio
ID : 2
Format : AC-3
Format/Info : Audio Coding 3
Mode extension : CM (complete main)
Format settings, Endianness : Big
Codec ID : A_AC3
Duration : 21mn 30s
Bit rate mode : Constant
Bit rate : 192 Kbps
Channel(s) : 1 channel
Channel positions : Front: C
Sampling rate : 48.0 KHz
Bit depth : 16 bits
Compression mode : Lossy
Stream size : 29.5 MiB (1%)
Language : French
Default : Yes
Forced : No
Text #1
ID : 3
Format : UTF-8
Codec ID : S_TEXT/UTF8
Codec ID/Info : UTF-8 Plain Text
Language : Russian
Default : Yes
Forced : No
Text #2
ID : 4
Format : UTF-8
Codec ID : S_TEXT/UTF8
Codec ID/Info : UTF-8 Plain Text
Language : English
Default : No
Forced : No

Скриншоты

[teatrix.ru].t3874.torrent 
Торрент: Зарегистрирован [ 2015-10-07 12:13 ] · 126B47C2AA593844C9889EDADD5C66391BE29508

Скачать .torrent

Скачать

25 KB

Статус: проверено
Скачан: 0 раз
Размер: 4.88 GB
terms.php



Быстрый ответ

Имя:

      
Для отправки сообщений необходимо включить JavaScript
Показать сообщения:    

Текущее время: 02-Дек 23:06

Часовой пояс: UTC + 3


Вы можете начинать темы
Вы можете отвечать на сообщения
Вы не можете редактировать свои сообщения
Вы не можете удалять свои сообщения
Вы не можете голосовать в опросах
Вы не можете прикреплять файлы к сообщениям
Вы можете скачивать файлы