Слуга / Sluga (Горан Паскалевич / Goran Paskaljevic) [1973, Югославия, драма, короткометражный, TVRip] Sub Rus


Статистика раздачи [Обновить пиров]
Размер:  399 MB   |    Зарегистрирован:  1 год 1 месяц   |    Скачан:  0 раз

Полного источника не было: Никогда

 
   
 
 
 

[Цитировать]

Слуга / Sluga
Страна: Югославия
Жанр: драма, короткометражный
Год выпуска: 1973
Продолжительность: 38:21
Перевод: Субтитры (yugo45)
Cубтитры: русские
Оригинальная аудиодорожка: сербохорватская
Режиссер: Горан Паскалевич / Goran Paskaljevic
В ролях: Велимир "Бата" Живоинович, Лиляна Газдич, Душан Яничиевич, Бранислав Еринич, Миня Войводич, Павле Вуйсич
Описание: Сюжет фильма основан на народном сказании, и о месте и времени произошедших событий не говорится. Когда-то в каком-то сербском селе у богатого помещика была молодая и красивая жена, но не было наследника. Однажды он замечает у церкви неизвестного бродягу, и выслушав его историю о том что погибла вся его семья, берёт его к себе на работу...

Доп. информация

Это один из трёх снятых Гораном Паскалевичем короткометражных фильмов для ТВ, причём в своём следующем фильме ("Potomak", 1974) он задействует точно такой же актёрский состав. Хочу отметить выдающуюся работу оператора Милана Спасича, который сотрудничает с Паскалевичем на всё протяжении его карьеры. В этой короткометражке, где минимум диалогов, именно его камера является главным транслятором режиссёрской идеи.
Сэмпл: http://multi-up.com/176554
Качество видео: TVRip
Формат видео: AVI
Видео: XviD, 608*386, 16:10, 30.000 fps, 1 315 Kbps
Аудио: MPEG 1 Layer 3, 48 kHz, 128 Kbps, 2 ch
Формат субтитров: softsub (SRT)

MediaInfo

General
Complete name : ./Загрузки/Sluga[1973]/Sluga.1973.avi
Format : AVI
Format/Info : Audio Video Interleave
File size : 399 MiB
Duration : 38mn 21s
Overall bit rate : 1 455 Kbps
Movie name : Sluga.1973
Law rating : Unrated
Writing application : VirtualDubMod 1.5.4.1 (build 2178/release)
Writing library : VirtualDubMod build 2178/release
Video
ID : 0
Format : MPEG-4 Visual
Format profile : Advanced Simple@L5
Format settings, BVOP : 1
Format settings, QPel : No
Format settings, GMC : No warppoints
Format settings, Matrix : Default (H.263)
Muxing mode : Packed bitstream
Codec ID : XVID
Codec ID/Hint : XviD
Duration : 38mn 21s
Bit rate : 1 315 Kbps
Width : 608 pixels
Height : 386 pixels
Display aspect ratio : 16:10
Frame rate : 30.000 fps
Color space : YUV
Chroma subsampling : 4:2:0
Bit depth : 8 bits
Scan type : Progressive
Compression mode : Lossy
Bits/(Pixel*Frame) : 0.187
Stream size : 361 MiB (90%)
Title : Sluga.1973
Writing library : XviD 1.2.1 (UTC 2008-12-04)
Audio
ID : 1
Format : MPEG Audio
Format version : Version 1
Format profile : Layer 3
Codec ID : 55
Codec ID/Hint : MP3
Duration : 38mn 21s
Bit rate mode : Constant
Bit rate : 128 Kbps
Channel(s) : 2 channels
Sampling rate : 48.0 KHz
Compression mode : Lossy
Stream size : 35.1 MiB (9%)
Alignment : Split accross interleaves
Interleave, duration : 33 ms (1.00 video frame)
Interleave, preload duration : 500 ms
Language : Undefined

Скриншот c названием фильма

Скриншоты

Фрагмент субтитров

1
00:00:12,021 --> 00:00:15,122
СЛУГА
2
00:04:16,365 --> 00:04:21,885
Видишь этот камень перед церковью?
Подними его, и я дам тебе еду.
3
00:04:47,933 --> 00:04:49,650
Давай, покажи свою силу.
4
00:06:55,562 --> 00:06:59,437
Иди за мной. Давай, давай!
5
00:08:25,104 --> 00:08:26,851
Дай ему что-нибудь поесть.
[teatrix.ru].t3875.torrent 
Торрент: Зарегистрирован [ 2015-10-07 12:13 ] · 2CD6D704F2F2214BBB80E4F65491EE69BD521849

Скачать .torrent

Скачать

32 KB

Статус: проверено
Скачан: 0 раз
Размер: 399 MB
terms.php



Быстрый ответ

Имя:

      
Для отправки сообщений необходимо включить JavaScript
Показать сообщения:    

Текущее время: 03-Дек 03:16

Часовой пояс: UTC + 3


Вы можете начинать темы
Вы можете отвечать на сообщения
Вы не можете редактировать свои сообщения
Вы не можете удалять свои сообщения
Вы не можете голосовать в опросах
Вы не можете прикреплять файлы к сообщениям
Вы можете скачивать файлы