Дядя / Strejda (Яромил Иреш / Jaromil Jires) [1959, Чехословакия, короткометражка, комедия, BDRemux 1080p] [Criterion Collection] Sub (Rus, Eng) + Original Cze


Статистика раздачи [Обновить пиров]
Размер:  1.49 GB   |    Зарегистрирован:  1 год 2 месяца   |    Скачан:  0 раз

Полного источника не было: Никогда

 
   
 
 
 

[Цитировать]

Дядя / Strejda
Страна: Чехословакия
Жанр: короткометражка, комедия
Год выпуска: 1959
Продолжительность: 00:06:07
Перевод: Субтитры
Cубтитры: русские, английские
Оригинальная аудиодорожка: чешский-Режиссер: Яромил Иреш / Jaromil Jires
В ролях: Властимил Бродский, Владимир Завазал
Описание: По рассказу Милана Шимека.
История про мальчика и вора.
IMDb || КиноПоиск-Тип релиза: BDRemux 1080p [Valerie and Her Week of Wonders 1970 1080p Blu-ray AVC LPCM 1.0]
Контейнер: MKV
Видео: MPEG-4 AVC Video, 1920x1080 at 23.976 fps, 34679 kbps
Аудио: Czech: 48 kHz, AC3, 1.0 ch, 192 kbps
Формат субтитров: softsub (SRT)
Сэмпл

MediaInfo

General
Unique ID : 176796998272187833334612797072661361820 (0x8501DD018EC4E84DAF91C6874179349C)
Complete name : Strejda.1959.Criterion.BDRemux. rutracker.mkv
Format : Matroska
Format version : Version 2
File size : 1.49 GiB
Duration : 6mn 7s
Overall bit rate mode : Variable
Overall bit rate : 34.9 Mbps
Movie name : Release for RuTracker
Writing application : mkvmerge v5.0.1 ('Es ist Sommer') built on Nov 6 2011 16:23:40
Writing library : libebml v1.2.2 + libmatroska v1.3.0
Video
ID : 1
Format : AVC
Format/Info : Advanced Video Codec
Format profile : High@L4.1
Format settings, CABAC : Yes
Format settings, ReFrames : 4 frames
Codec ID : V_MPEG4/ISO/AVC
Duration : 6mn 7s
Bit rate mode : Variable
Bit rate : 34.0 Mbps
Maximum bit rate : 37.0 Mbps
Width : 1 920 pixels
Height : 1 080 pixels
Display aspect ratio : 16:9
Frame rate mode : Constant
Frame rate : 23.976 fps
Color space : YUV
Chroma subsampling : 4:2:0
Bit depth : 8 bits
Scan type : Progressive
Bits/(Pixel*Frame) : 0.683
Stream size : 1.45 GiB (97%)
Title : Strejda.1959.Criterion.BDRemux. rutracker
Language : Czech
Default : Yes
Forced : No
Audio
ID : 2
Format : AC-3
Format/Info : Audio Coding 3
Mode extension : CM (complete main)
Format settings, Endianness : Big
Codec ID : A_AC3
Duration : 6mn 7s
Bit rate mode : Constant
Bit rate : 192 Kbps
Channel(s) : 1 channel
Channel positions : Front: C
Sampling rate : 48.0 KHz
Bit depth : 16 bits
Compression mode : Lossy
Stream size : 8.41 MiB (1%)
Language : Czech
Default : Yes
Forced : No
Text #1
ID : 3
Format : UTF-8
Codec ID : S_TEXT/UTF8
Codec ID/Info : UTF-8 Plain Text
Language : Russian
Default : Yes
Forced : No
Text #2
ID : 4
Format : UTF-8
Codec ID : S_TEXT/UTF8
Codec ID/Info : UTF-8 Plain Text
Language : English
Default : No
Forced : No

Скриншоты

[teatrix.ru].t3876.torrent 
Торрент: Зарегистрирован [ 2015-10-07 12:13 ] · 0146A1DE4787D751F98D727ABAF97E4238E3E9DA

Скачать .torrent

Скачать

15 KB

Статус: проверено
Скачан: 0 раз
Размер: 1.49 GB
terms.php



Быстрый ответ

Имя:

      
Для отправки сообщений необходимо включить JavaScript
Показать сообщения:    

Текущее время: 08-Дек 09:05

Часовой пояс: UTC + 3


Вы можете начинать темы
Вы можете отвечать на сообщения
Вы не можете редактировать свои сообщения
Вы не можете удалять свои сообщения
Вы не можете голосовать в опросах
Вы не можете прикреплять файлы к сообщениям
Вы можете скачивать файлы