Аисса / Aissa (Клеман Треин-Лаланн / Clement Trehin-Lalanne) [2014, Франция, драма, короткий метр, DVB -> DVD] Original (Fre) + Sub (Rus, Eng, Fre, Deu)


Статистика раздачи [Обновить пиров]
Размер:  207 MB   |    Зарегистрирован:  1 год 1 месяц   |    Скачан:  0 раз

Полного источника не было: 1 год

 
   
 
 
 

[Цитировать]

Аисса
Aïssa- Страна: Франция
Жанр: драма, короткий метр
Год выпуска: 2014
Продолжительность: 00:08:20Перевод: Субтитры (русский перевод И.Рыбкиной, Éclair Group)
Cубтитры: русские, английские, французские, немецкие, нидерландские, румынские
Оригинальная аудиодорожка: французский
Режиссер: Клеман Треин-Лаланн / Clément Tréhin-Lalanne
В ролях: Манда Туре / Manda Touré (Aïssa), Бернар Кампан / Bernard Campan (Dr. Perrault, voice)
Описание: Чтобы установить физический возраст конголезской девушки, незаконно проживающей во Франции, ее по решению суда направляют на медицинское освидетельствование.
Доп. информация: Hot Bird (13.0°E) TV5MONDE Europe DVB-S
Награды: специальное упоминание жюри Cannes Film Festival 2014 + номинация на "Золотую пальмовую ветвь" за лучшую короткометражку; номинация на "Сезар" 2015 за лучшую короткометражку; др. награды.

Качество видео: DVB
Формат видео: DVD Video
Видео: MPEG Video 2, 720x576@1024x576 (16:9), 25 fps, ~3203 kbps avg, 0.309 bit/pixel
Аудио: MPEG Audio 2, 2 ch, 48 kHz, ~192.00 kbps avg - французский
Формат субтитров: prerendered (IDX+SUB)

DVDInfo, MediaInfo

Title: [apreder]MM_Aissa(2014)DVBSize: ~ 0.20 Gb - DVD-5Enabled regions: 1, 2, 3, 4, 5, 6, 7, 8
VTS_01 : Play Length: 00:08:20 Video: PAL 16:9 (720x576) VBR, Auto Letterboxed Audio: Francais (MPEG1, 2 ch) Subtitles: Russian English Francais Deutsch Nederlands Romanian
ОбщееПолное имя : F:\My Torrents 3\[apreder]MINI_MOVIES_10\[apreder]MM_Aissa(2014)DVB\VIDEO_TS\VTS_01_1.VOBФормат : MPEG-PSРазмер файла : 207 МбайтПродолжительность : 8 м. 20 с.Режим общего битрейта : ПеременныйОбщий поток : 3464 Кбит/сек
ВидеоИдентификатор : 224 (0xE0)Формат : MPEG VideoВерсия формата : Version 2Профиль формата : Main@MainПараметр BVOP формата : ДаПараметр матрицы формата : ВыборочнаяПараметр GOP формата : VariableFormat_Settings_PictureStructure : FrameПродолжительность : 8 м. 20 с.Вид битрейта : ПеременныйБитрейт : 3203 Кбит/секШирина : 720 пикселейВысота : 576 пикселейСоотношение сторон : 16:9Частота кадров : 25,000 кадров/секСтандарт вещания : PALЦветовое пространство : YUVСубдискретизация насыщенности : 4:2:0Битовая глубина : 8 битТип развёртки : ЧересстрочнаяПорядок развёртки : Верхнее поле первоеМетод сжатия : С потерямиБит/(Пиксели*Кадры) : 0.309Временной код первого кадра : 00:00:00:00Оригинал временного кода : Group of pictures headerРазмер потока : 191 Мбайт (92%)
АудиоИдентификатор : 192 (0xC0)Формат : MPEG AudioВерсия формата : Version 1Профиль формата : Layer 2Продолжительность : 8 м. 20 с.Вид битрейта : ПостоянныйБитрейт : 192 Кбит/секКаналы : 2 каналаЧастота : 48,0 КГцМетод сжатия : С потерямиРазмер потока : 11,5 Мбайт (6%)
Текст #1Идентификатор : 189 (0xBD)-32 (0x20)Формат : RLEФормат/Информация : Run-length encodingРежим смешивания : DVD-Video
Текст #2Идентификатор : 189 (0xBD)-33 (0x21)Формат : RLEФормат/Информация : Run-length encodingРежим смешивания : DVD-Video
Текст #3Идентификатор : 189 (0xBD)-34 (0x22)Формат : RLEФормат/Информация : Run-length encodingРежим смешивания : DVD-Video
Текст #4Идентификатор : 189 (0xBD)-35 (0x23)Формат : RLEФормат/Информация : Run-length encodingРежим смешивания : DVD-Video
Текст #5Идентификатор : 189 (0xBD)-36 (0x24)Формат : RLEФормат/Информация : Run-length encodingРежим смешивания : DVD-Video

Скриншот c названием фильма

Скриншоты

Резервные скриншоты

-[2'495]
[teatrix.ru].t3878.torrent 
Торрент: Зарегистрирован [ 2015-10-07 12:13 ] · CA3971163934037332B10BF970BF316EDDD4CD49

Скачать .torrent

Скачать

17 KB

Статус: проверено
Скачан: 0 раз
Размер: 207 MB
terms.php



Быстрый ответ

Имя:

      
Для отправки сообщений необходимо включить JavaScript
Показать сообщения:    

Текущее время: 05-Дек 21:36

Часовой пояс: UTC + 3


Вы можете начинать темы
Вы можете отвечать на сообщения
Вы не можете редактировать свои сообщения
Вы не можете удалять свои сообщения
Вы не можете голосовать в опросах
Вы не можете прикреплять файлы к сообщениям
Вы можете скачивать файлы