Габриель / Gabrielle (Марго Фруатье / Margo Fruitier, Поль Картрон / Paul Cartron) [2013, Бельгия, драма, эмпатия, короткий метр, DVB -> DVD] Original (Fre) + Sub (Rus, Eng, Fre, Deu)


Статистика раздачи [Обновить пиров]
Размер:  403 MB   |    Зарегистрирован:  1 год 2 месяца   |    Скачан:  0 раз

Полного источника не было: Никогда

 
   
 
 
 

[Цитировать]

Габриель
Gabrielle- Страна: Бельгия
Жанр: драма, эмпатия, короткий метр
Год выпуска: 2013
Продолжительность: 00:16:17
Перевод: Субтитры (перевод М.Кузиной, Éclair Group)
Cубтитры: русские, английские, французские, немецкие, нидерландские, румынские
Оригинальная аудиодорожка: французскийРежиссер: Марго Фруатье / Margo Fruitier, Поль Картрон / Paul Cartron
В ролях: Ким Сейсенс / Kim Ceysens, Сэм Лувик / Sam Louwyck, Ингрид Хайдершайд / Ingrid Heiderscheidt
Описание: Карина, листая записную книжку, рассказывает Габриель о мужчинах, бывших ее клиентами в прошлом. Девушка останавливается на одном из них…
Доп. информация: Hot Bird (13.0°E) TV5MONDE Europe DVB-S
Награды: приз за лучшую женскую роль (Kim Ceysens) Le Court en dit Long, Paris 2014; приз Cinégalité - Festival Elles Tournent (Belgique) 2014; 2 награды Festival Clap 89 (France) 2014 (Clap d'Argent, лучшая актриса - Kim Ceysens).

Качество видео: DVB
Формат видео: DVD Video
Видео: MPEG Video 2, 720x576@1024x576 (16:9), 25 fps, ~3193 kbps avg, 0.308 bit/pixel
Аудио: MPEG Audio 2, 2 ch, 48 kHz, ~192.00 kbps avg - французский
Формат субтитров: prerendered (IDX+SUB)

DVDInfo, MediaInfo

Title: [apreder]MM_Gabrielle(2013)DVBSize: ~ 0.39 Gb - DVD-5Enabled regions: 1, 2, 3, 4, 5, 6, 7, 8
VTS_01 : Play Length: 00:16:17 Video: PAL 16:9 (720x576) VBR, Auto Letterboxed Audio: Francais (MPEG1, 2 ch) Subtitles: Russian English Francais Deutsch Nederlands Romanian
ОбщееПолное имя : F:\My Torrents 3\[apreder]MINI_MOVIES_10\[apreder]MM_Gabrielle(2013)DVB\VIDEO_TS\VTS_01_1.VOBФормат : MPEG-PSРазмер файла : 402 МбайтПродолжительность : 16 м.Режим общего битрейта : ПеременныйОбщий поток : 3454 Кбит/сек
ВидеоИдентификатор : 224 (0xE0)Формат : MPEG VideoВерсия формата : Version 2Профиль формата : Main@MainПараметр BVOP формата : ДаПараметр матрицы формата : ВыборочнаяПараметр GOP формата : M=4, N=12Format_Settings_PictureStructure : FrameПродолжительность : 16 м.Вид битрейта : ПеременныйБитрейт : 3193 Кбит/секШирина : 720 пикселейВысота : 576 пикселейСоотношение сторон : 16:9Частота кадров : 25,000 кадров/секСтандарт вещания : PALЦветовое пространство : YUVСубдискретизация насыщенности : 4:2:0Битовая глубина : 8 битТип развёртки : ЧересстрочнаяПорядок развёртки : Верхнее поле первоеМетод сжатия : С потерямиБит/(Пиксели*Кадры) : 0.308Временной код первого кадра : 00:00:00:00Оригинал временного кода : Group of pictures headerРазмер потока : 372 Мбайт (92%)
АудиоИдентификатор : 192 (0xC0)Формат : MPEG AudioВерсия формата : Version 1Профиль формата : Layer 2Продолжительность : 16 м.Вид битрейта : ПостоянныйБитрейт : 192 Кбит/секКаналы : 2 каналаЧастота : 48,0 КГцМетод сжатия : С потерямиРазмер потока : 22,4 Мбайт (6%)
Текст #1Идентификатор : 189 (0xBD)-32 (0x20)Формат : RLEФормат/Информация : Run-length encodingРежим смешивания : DVD-VideoПродолжительность : 16 м.Задержка видео : 6 с. 640 мс.
Текст #2Идентификатор : 189 (0xBD)-33 (0x21)Формат : RLEФормат/Информация : Run-length encodingРежим смешивания : DVD-VideoПродолжительность : 16 м.Задержка видео : 8 с. 640 мс.
Текст #3Идентификатор : 189 (0xBD)-34 (0x22)Формат : RLEФормат/Информация : Run-length encodingРежим смешивания : DVD-VideoПродолжительность : 16 м.Задержка видео : 8 с. 640 мс.
Текст #4Идентификатор : 189 (0xBD)-35 (0x23)Формат : RLEФормат/Информация : Run-length encodingРежим смешивания : DVD-VideoПродолжительность : 16 м.Задержка видео : 6 с. 640 мс.
Текст #5Идентификатор : 189 (0xBD)-36 (0x24)Формат : RLEФормат/Информация : Run-length encodingРежим смешивания : DVD-VideoПродолжительность : 16 м.Задержка видео : 6 с. 640 мс.
Текст #6Идентификатор : 189 (0xBD)-37 (0x25)Формат : RLEФормат/Информация : Run-length encodingРежим смешивания : DVD-VideoЗадержка видео : 6 с. 760 мс.

Скриншот c названием фильма

Скриншоты

Резервные скриншоты

-[1'783]
[teatrix.ru].t3879.torrent 
Торрент: Зарегистрирован [ 2015-10-07 12:13 ] · 8E20BE96EF14294B8BBE3E3ADC67027AEE12C3A5

Скачать .torrent

Скачать

16 KB

Статус: проверено
Скачан: 0 раз
Размер: 403 MB
terms.php



Быстрый ответ

Имя:

      
Для отправки сообщений необходимо включить JavaScript
Показать сообщения:    

Текущее время: 09-Дек 03:05

Часовой пояс: UTC + 3


Вы можете начинать темы
Вы можете отвечать на сообщения
Вы не можете редактировать свои сообщения
Вы не можете удалять свои сообщения
Вы не можете голосовать в опросах
Вы не можете прикреплять файлы к сообщениям
Вы можете скачивать файлы