Путешествие вокруг руки / Путешествие руки / Voyage d'une main (Рауль Руис / Raoul Ruiz) [1985, Франция, короткометражный, энигматический, DVDRip] + Sub Rus + Original Fre


Статистика раздачи [Обновить пиров]
Размер:  187 MB   |    Зарегистрирован:  1 год 2 месяца   |    Скачан:  0 раз

Полного источника не было: Никогда

 
   
 
 
 

[Цитировать]

Путешествие вокруг руки / Путешествие руки / Voyage d'une main
Страна: Франция
Жанр: короткометражный, энигматический
Год выпуска: 1985
Продолжительность: 00:22:32
Перевод: Субтитры
Cубтитры: русские
Оригинальная аудиодорожка: французский
Режиссер: Рауль Руис / Raoul Ruiz
В ролях: Франк Оже/Franck Oger, Надеж Клэр/Nadège Clair, Camila Mora/Камила Мора, Martine Odile/Мартин Одиль, Valeria Sarmiento/Валерия Сармиенто
Описание: Основываясь на произведении Яна Потоцкого, Рауль Руис спрессовывает в двадцать минут экранного времени века и жизни. Кто-то снится кому-то, болезнь руки зовёт в путешествие, язва на ладони похожа на карту, руку отрезают, рука чувствует на расстоянии – карнавал странных изменений, которые тревожат своей загадочностью.
Доп. информация: Перевод – daft-digger, ретайминг и подготовка субтитров – alex-kin.
Сэмпл: http://multi-up.com/1057039
Качество видео: DVDRip
Формат видео: MPEG-PS
Видео: MPEG Video at 1000 kbps, 0.395 bit/pixel, 352x288 at 25 fps
Аудио: MPEG Audio at 96,0 kbps, 2 ch, 48 kHz
Формат субтитров: softsub (SRT)

MediaInfo

Формат : MPEG-PS
Размер файла : 187 Мбайт
Продолжительность : 22 м.
Общий поток : 1159 Кбит/сек
Видео
Идентификатор : 224 (0xE0)
Формат : MPEG Video
Версия формата : Version 2
Параметр BVOP формата : Да
Параметр матрицы формата : По умолчанию
Продолжительность : 22 м.
Вид битрейта : Постоянный
Битрейт : 1000 Кбит/сек
Ширина : 352 пикс.
Высота : 288 пикс.
Соотношение сторон : 1,222
Частота кадров : 25,000 кадр/сек
Стандарт вещания : PAL
Цветовое пространство : YUV
Битовая глубина : 8 бит
Тип развёртки : Прогрессивная
Метод сжатия : С потерями
Бит/(Пиксели*Кадры) : 0.395
Размер потока : 168 Мбайт (90%)
Аудио
Идентификатор : 192 (0xC0)
Формат : MPEG Audio
Версия формата : Version 1
Профиль формата : Layer 2
Продолжительность : 22 м.
Вид битрейта : Постоянный
Битрейт : 96,0 Кбит/сек
Канал(ы) : 2 канала(ов)
Частота : 48,0 КГц
Метод сжатия : С потерями
Размер потока : 15,5 Мбайт (8%)

Фрагмент субтитров

196
00:17:13,889 --> 00:17:15,756
Мадам Хенриксон,
197
00:17:16,839 --> 00:17:20,654
мой секрет был украден вами.
198
00:17:25,145 --> 00:17:26,912
Как вы видите.
199
00:17:29,207 --> 00:17:31,436
Эта рука была больна,
200
00:17:32,485 --> 00:17:34,295
потому я отрезал ее.
201
00:17:35,417 --> 00:17:38,980
И с тех пор мое здоровье
потихоньку наладилось.
202
00:17:42,248 --> 00:17:45,351
Вы считаете, что я сошел с ума,
203
00:17:46,037 --> 00:17:48,246
но я способен прикасаться
этой рукой.
204
00:17:50,028 --> 00:17:51,439
Вы мне не верите?
205
00:17:52,907 --> 00:17:54,816
Проведем эксперимент.
206
00:17:55,814 --> 00:17:57,392
Возьмите эту руку,
207
00:18:00,413 --> 00:18:02,351
а я отвернусь.

Скриншот c названием фильма

Скриншоты

[teatrix.ru].t3881.torrent 
Торрент: Зарегистрирован [ 2015-10-07 12:13 ] · 98E7AE340A746A2E074348D38DD1E4E32D91E7EB

Скачать .torrent

Скачать

15 KB

Статус: проверено
Скачан: 0 раз
Размер: 187 MB
terms.php



Быстрый ответ

Имя:

      
Для отправки сообщений необходимо включить JavaScript
Показать сообщения:    

Текущее время: 11-Дек 09:11

Часовой пояс: UTC + 3


Вы можете начинать темы
Вы можете отвечать на сообщения
Вы не можете редактировать свои сообщения
Вы не можете удалять свои сообщения
Вы не можете голосовать в опросах
Вы не можете прикреплять файлы к сообщениям
Вы можете скачивать файлы