Супермен не еврей, в отличие от меня / Superman n'est pas juif et moi un peu (Джимми Бемон / Jimmy Bemon) [2014, Франция, экзистенциальная трагикомедия, короткий метр, DVB] Original (Fre) + Sub (Rus, Eng, Fre, Deu)


Статистика раздачи [Обновить пиров]
Размер:  732 MB   |    Зарегистрирован:  1 год 1 месяц   |    Скачан:  0 раз

Полного источника не было: Никогда

 
   
 
 
 

[Цитировать]

Супермен не еврей (...в отличие от меня)
Superman n'est pas juif (...et moi un peu)- Страна: Франция
Жанр: экзистенциальная трагикомедия, экранизация, короткий метр
Год выпуска: 2014
Продолжительность: 00:29:22
Перевод: Субтитры (русский перевод И. Рыбкиной, Éclair Group)
Cубтитры: русские, английские, французские, немецкие, нидерландские, румынские
Оригинальная аудиодорожка: французский
Режиссер: Джимми Бемон / Jimmy BemonВ ролях: Коля Абитбуль / Kolia Abiteboul (Benjamin enfant), Жюль Риго / Jules Rigault (Benjamin ado), Иван Кори / Ivan Cori (Benjamin adulte), Жан-Мари Ламур / Jean-Marie Lamour (Le papa de Benjamin), Александра Ермак / Aleksandra Yermak (La maman de Benjamin)
Описание: По комиксам Джимми Бемона / Jimmy Bemon и Эмили Буде / Émilie Boudet.
Я всегда думал, что обладаю способностями, которых нет ни у кого больше. Что я лучше, умнее и сильнее всех. Это пошло с того дня, когда мои родители решили расстаться… (из предисловия к фильму)
Но когда Бенжамен осознает, что главное его отличие от остальных, это то, что он – еврей, мальчик решает сделать все возможное, чтобы сохранить свое происхождение и свою религию в тайне от окружающих…
Доп. информация: Hot Bird (13.0°E) TV5MONDE Europe DVB-S
Награда: приз за лучший студенческий фильм Международного кинофестиваля в Нанси 2014.

Качество видео: DVB
Формат видео: DVD Video
Видео: MPEG Video 2, 720x576@1024x576 (16:9), 25 fps, ~3221 kbps avg, 0.311 bit/pixel
Аудио: MPEG Audio 2, 2 ch, 48 kHz, ~192.00 kbps avg - французский
Формат субтитров: prerendered (IDX+SUB)

DVDInfo, MediaInfo

Title: [apreder]MM_Superman_n'est_pas_juif_et_moi_un_peu(2014)DVBSize: ~ 0.71 Gb - DVD-5Enabled regions: 1, 2, 3, 4, 5, 6, 7, 8
VTS_01 : Play Length: 00:29:22 Video: PAL 16:9 (720x576) VBR, Auto Letterboxed Audio: Francais (MPEG1, 2 ch) Subtitles: Russian English Francais Deutsch Nederlands Romanian
ОбщееПолное имя : F:\My Torrents 3\[apreder]MINI_MOVIES_10\[apreder]MM_Superman_n'est_pas_juif_et_moi_un_peu(2014)DVB\VIDEO_TS\VTS_01_1.VOBФормат : MPEG-PSРазмер файла : 732 МбайтПродолжительность : 29 м.Режим общего битрейта : ПеременныйОбщий поток : 3483 Кбит/сек
ВидеоИдентификатор : 224 (0xE0)Формат : MPEG VideoВерсия формата : Version 2Профиль формата : Main@MainПараметр BVOP формата : ДаПараметр матрицы формата : ВыборочнаяПараметр GOP формата : VariableFormat_Settings_PictureStructure : FrameПродолжительность : 29 м.Вид битрейта : ПеременныйБитрейт : 3221 Кбит/секШирина : 720 пикселейВысота : 576 пикселейСоотношение сторон : 16:9Частота кадров : 25,000 кадров/секСтандарт вещания : PALЦветовое пространство : YUVСубдискретизация насыщенности : 4:2:0Битовая глубина : 8 битТип развёртки : ЧересстрочнаяПорядок развёртки : Верхнее поле первоеМетод сжатия : С потерямиБит/(Пиксели*Кадры) : 0.311Временной код первого кадра : 00:00:00:00Оригинал временного кода : Group of pictures headerРазмер потока : 677 Мбайт (92%)
АудиоИдентификатор : 192 (0xC0)Формат : MPEG AudioВерсия формата : Version 1Профиль формата : Layer 2Продолжительность : 29 м.Вид битрейта : ПостоянныйБитрейт : 192 Кбит/секКаналы : 2 каналаЧастота : 48,0 КГцМетод сжатия : С потерямиРазмер потока : 40,3 Мбайт (6%)
Текст #1Идентификатор : 189 (0xBD)-32 (0x20)Формат : RLEФормат/Информация : Run-length encodingРежим смешивания : DVD-VideoПродолжительность : 29 м.Задержка видео : 8 с. 440 мс.
Текст #2Идентификатор : 189 (0xBD)-33 (0x21)Формат : RLEФормат/Информация : Run-length encodingРежим смешивания : DVD-VideoПродолжительность : 29 м.Задержка видео : 8 с. 320 мс.
Текст #3Идентификатор : 189 (0xBD)-34 (0x22)Формат : RLEФормат/Информация : Run-length encodingРежим смешивания : DVD-VideoПродолжительность : 29 м.Задержка видео : 8 с. 360 мс.
Текст #4Идентификатор : 189 (0xBD)-35 (0x23)Формат : RLEФормат/Информация : Run-length encodingРежим смешивания : DVD-VideoПродолжительность : 29 м.Задержка видео : 8 с. 320 мс.
Текст #5Идентификатор : 189 (0xBD)-36 (0x24)Формат : RLEФормат/Информация : Run-length encodingРежим смешивания : DVD-VideoПродолжительность : 29 м.Задержка видео : 8 с. 440 мс.
Текст #6Идентификатор : 189 (0xBD)-37 (0x25)Формат : RLEФормат/Информация : Run-length encodingРежим смешивания : DVD-VideoЗадержка видео : 80 мс.

Скриншот c названием фильма

Скриншоты

Резервные скриншоты

-[1'710]
[teatrix.ru].t3884.torrent 
Торрент: Зарегистрирован [ 2015-10-07 12:13 ] · EDE644229549F7B74F968E75AC1B9CB7CCBBF40E

Скачать .torrent

Скачать

15 KB

Статус: проверено
Скачан: 0 раз
Размер: 732 MB
terms.php



Быстрый ответ

Имя:

      
Для отправки сообщений необходимо включить JavaScript
Показать сообщения:    

Текущее время: 03-Дек 03:19

Часовой пояс: UTC + 3


Вы можете начинать темы
Вы можете отвечать на сообщения
Вы не можете редактировать свои сообщения
Вы не можете удалять свои сообщения
Вы не можете голосовать в опросах
Вы не можете прикреплять файлы к сообщениям
Вы можете скачивать файлы