Охранять гору / Å vokte fjellet / To Guard a Mountain (Изер Алиу / Izer Aliu) [2012, Норвегия, Македония, драма, короткий метр, WEB-DLRip-AVC] VO + Sub Rus


Статистика раздачи [Обновить пиров]
Размер:  122 MB   |    Зарегистрирован:  1 год 2 месяца   |    Скачан:  0 раз

Полного источника не было: Никогда

 
   
 
 
 

[Цитировать]

Охранять гору / Å vokte fjellet / To Guard a Mountain
Страна: Норвегия, Македония
Жанр: драма, короткий метр
Год выпуска: 2012
Продолжительность: 00:24:07
Перевод: Одноголосый закадровый
Cубтитры: русские
Оригинальная аудиодорожка: албанская
Режиссер: Изер Алиу / Izer Aliu
В ролях: Бесим Муртезани, Алтын Ашани, Бурхан Амити и др.
Описание: После пропажи ягненка, отец отправляет своих детей на его поиски.
Сэмпл: http://multi-up.com/1047980
Качество видео: WEB-DLRip-AVC
Формат видео: MKV
Видео: AVC at 440 Кбит/сек : 716 x 294 (2.435) at 25.000 fps
Аудио 1: MPEG Audio at 128 Кбит/сек : 2 канала, 48,0 КГц Language : ru
Аудио 2: MPEG Audio at 128 Кбит/сек : 2 канала, 48,0 КГц Language : sq
Формат субтитров: softsub (SRT)
Доп. информация о субтитрах: Встроенные (rain_ricochet)

MediaInfo

Общее
Уникальный идентификатор : 177356428361491866187457656607882455450 (0x856D9B09FBF40326800E721AE83DA99A)
Полное имя : F:\С моей озвучкой\Охранять гору(2012).mkv
Формат : Matroska
Версия формата : Version 4 / Version 2
Размер файла : 122 Мбайт
Продолжительность : 24 м.
Общий поток : 710 Кбит/сек
Дата кодирования : UTC 2015-05-10 20:41:19
Программа кодирования : mkvmerge v6.1.0 ('Old Devil') built on Mar 4 2013 09:10:42
Библиотека кодирования : libebml v1.3.0 + libmatroska v1.4.0
Видео
Идентификатор : 1
Формат : AVC
Формат/Информация : Advanced Video Codec
Профиль формата : High@L3.1
Параметр CABAC формата : Да
Параметр ReFrames формата : 5 кадров
Идентификатор кодека : V_MPEG4/ISO/AVC
Продолжительность : 24 м.
Битрейт : 440 Кбит/сек
Ширина : 716 пикселей
Высота : 294 пикселя
Соотношение сторон : 2,40:1
Режим частоты кадров : Постоянный
Частота кадров : 25,000 кадров/сек
Цветовое пространство : YUV
Субдискретизация насыщенности : 4:2:0
Битовая глубина : 8 бит
Тип развёртки : Прогрессивная
Бит/(Пиксели*Кадры) : 0.084
Размер потока : 75,9 Мбайт (62%)
Библиотека кодирования : x264 core 140 r2377 1ca7bb9
Настройки программы : cabac=1 / ref=5 / deblock=1:0:0 / analyse=0x3:0x113 / me=umh / subme=8 / psy=1 / psy_rd=1.00:0.00 / mixed_ref=1 / me_range=16 / chroma_me=1 / trellis=1 / 8x8dct=1 / cqm=0 / deadzone=21,11 / fast_pskip=1 / chroma_qp_offset=-2 / threads=6 / lookahead_threads=1 / sliced_threads=0 / nr=0 / decimate=1 / interlaced=0 / bluray_compat=0 / constrained_intra=0 / bframes=3 / b_pyramid=2 / b_adapt=2 / b_bias=0 / direct=3 / weightb=1 / open_gop=0 / weightp=2 / keyint=250 / keyint_min=25 / scenecut=40 / intra_refresh=0 / rc_lookahead=50 / rc=crf / mbtree=1 / crf=19.0 / qcomp=0.60 / qpmin=0 / qpmax=69 / qpstep=4 / ip_ratio=1.40 / aq=1:1.00
Язык : English
Default : Да
Forced : Нет
Аудио #1
Идентификатор : 2
Формат : MPEG Audio
Версия формата : Version 1
Профиль формата : Layer 3
Режим : Joint stereo
Расширение режима : MS Stereo
Идентификатор кодека : A_MPEG/L3
Идентификатор кодека/Подсказка : MP3
Продолжительность : 24 м.
Вид битрейта : Постоянный
Битрейт : 128 Кбит/сек
Каналы : 2 канала
Частота : 48,0 КГц
Метод сжатия : С потерями
Размер потока : 22,1 Мбайт (18%)
Библиотека кодирования : LAME3.96
Язык : Russian
Default : Да
Forced : Нет
Аудио #2
Идентификатор : 3
Формат : MPEG Audio
Версия формата : Version 1
Профиль формата : Layer 3
Режим : Joint stereo
Расширение режима : MS Stereo
Идентификатор кодека : A_MPEG/L3
Идентификатор кодека/Подсказка : MP3
Продолжительность : 24 м.
Вид битрейта : Постоянный
Битрейт : 128 Кбит/сек
Каналы : 2 канала
Частота : 48,0 КГц
Метод сжатия : С потерями
Размер потока : 22,1 Мбайт (18%)
Библиотека кодирования : LAME3.98
Язык : Albanian
Default : Нет
Forced : Нет
Текст
Идентификатор : 4
Формат : UTF-8
Идентификатор кодека : S_TEXT/UTF8
Идентификатор кодека/Информация : UTF-8 Plain Text
Язык : Russian
Default : Нет
Forced : Нет

Скриншоты

[teatrix.ru].t3890.torrent 
Торрент: Зарегистрирован [ 2015-10-07 12:13 ] · 9B03ECB24B854C879B431DF8CB01BE1E2540EDD9

Скачать .torrent

Скачать

20 KB

Статус: проверено
Скачан: 0 раз
Размер: 122 MB
terms.php



Быстрый ответ

Имя:

      
Для отправки сообщений необходимо включить JavaScript
Показать сообщения:    

Текущее время: 11-Дек 03:23

Часовой пояс: UTC + 3


Вы можете начинать темы
Вы можете отвечать на сообщения
Вы не можете редактировать свои сообщения
Вы не можете удалять свои сообщения
Вы не можете голосовать в опросах
Вы не можете прикреплять файлы к сообщениям
Вы можете скачивать файлы