Любовь в двадцать лет: Антуан и Колетт / L'amour à vingt ans: Antoine et Colette / Love at Twenty (Франсуа Трюффо / Francois Truffaut) [1962 г., Франция, драма, короткометражный, BDRip] MVO + Original Fre + Sub (Rus, Eng)


Статистика раздачи [Обновить пиров]
Размер:  320 MB   |    Зарегистрирован:  1 год 1 месяц   |    Скачан:  2 раза

Полного источника не было: 2 месяца 18 дней

 
   
 
 
 

[Цитировать]

Любовь в двадцать лет: Антуан и Колетт / L'amour à vingt ans: Antoine et Colette- Год выпуска: 1962
Страна: Франция
Жанр: драма
Продолжительность: 00:30:14
Перевод: Профессиональный (многоголосый закадровый)
Оригинальная аудиодорожка: Французская
Cубтитры: Русские (форсированные, полные), английские-Режиссер: Франсуа Трюффо, Ренцо Росселлини, Cинтаро Исихара, Марсель Офюльс, Анджей Вайда
В ролях: Жан-Пьер Лео, Мари-Франс Пизье, Жан-Франсуа Адам, Патрик Оффэ, Франсуа Дарбон, Пьер Шеффер, Рози Варт-Описание:
Фильм входит в цикл фильмов, объединенных одним героем, Антуаном Дуанелем. Цикл начинается полуавтобиографическим фильмом «Четыреста ударов» (Les Quatre cents coups) и продолжается в таких фильмах, как «Антуан и Колетт» (Antoine et Colette, новелла в фильме «Любовь в 20 лет», 1962), «Украденные поцелуи» (Baisers volés, 1968), «Семейный очаг» (Domicile conjugal, 1970), «Сбежавшая любовь» (L’amoure en fuite, 1979).
"Любовь в двадцать лет" (L'Amour a vingt ans, 1962), альманах, состоящий из новелл француза Франсуа Трюффо, поляка Анджея Вайды, итальянца Ренцо Росселлини, австрийца Марселя Офюльса и японца Cинтаро Исихары... И дробная форма альманаха, и умиление молодостью как таковой характерны для начала 1960-х годов.
В новелле "Антуан и Колетт" герою 17 лет, он работает на фабрике грампластинок, активно и наивно клеит очаровательную ровесницу.- | IMDb | Сэмпл-Качество: BDRip - BDRip 720 или BDRemux 1080p
Контейнер: AVI
Видео: XviD, 672x288 (2.33:1), 24 fps, ~1208 kbps, ~0.26 bit/pixel
Аудио 1: Русский MP3, 2.0, 48 kHz, 128 kbps
Аудио 2: Французский MP3 2.0, 48 kHz, 128 kbps
Формат субтитров: softsub (SRT)

Скриншоты


MI

General
Complete name : Antoine.et.Colette.1962.BDRip.avi
Format : AVI
Format/Info : Audio Video Interleave
File size : 320 MiB
Duration : 30mn 14s
Overall bit rate : 1 478 Kbps
Writing application : VirtualDubMod 1.5.10.2 (build 2540/release)
Writing library : VirtualDubMod build 2540/release
Video
ID : 0
Format : MPEG-4 Visual
Format profile : Advanced Simple@L5
Format settings, BVOP : 1
Format settings, QPel : No
Format settings, GMC : No warppoints
Format settings, Matrix : Custom
Codec ID : XVID
Codec ID/Hint : XviD
Duration : 30mn 14s
Bit rate : 1 208 Kbps
Width : 672 pixels
Height : 288 pixels
Display aspect ratio : 2.35:1
Frame rate : 24.000 fps
Color space : YUV
Chroma subsampling : 4:2:0
Bit depth : 8 bits
Scan type : Progressive
Compression mode : Lossy
Bits/(Pixel*Frame) : 0.260
Stream size : 261 MiB (82%)
Writing library : XviD 65
Audio #1
ID : 1
Format : MPEG Audio
Format version : Version 1
Format profile : Layer 3
Mode : Joint stereo
Mode extension : MS Stereo
Codec ID : 55
Codec ID/Hint : MP3
Duration : 30mn 13s
Bit rate mode : Constant
Bit rate : 128 Kbps
Channel(s) : 2 channels
Sampling rate : 48.0 KHz
Compression mode : Lossy
Stream size : 27.7 MiB (9%)
Alignment : Aligned on interleaves
Interleave, duration : 42 ms (1.00 video frame)
Interleave, preload duratio : 504 ms
Audio #2
ID : 2
Format : MPEG Audio
Format version : Version 1
Format profile : Layer 3
Mode : Joint stereo
Mode extension : MS Stereo
Codec ID : 55
Codec ID/Hint : MP3
Duration : 30mn 14s
Bit rate mode : Constant
Bit rate : 128 Kbps
Channel(s) : 2 channels
Sampling rate : 48.0 KHz
Compression mode : Lossy
Stream size : 27.7 MiB (9%)
Alignment : Aligned on interleaves
Interleave, duration : 42 ms (1.00 video frame)
Interleave, preload duratio : 504 ms
[teatrix.ru].t3893.torrent 
Торрент: Зарегистрирован [ 2015-10-07 12:13 ] · 5BB20F3B553A6EEDCC9FD36CC90384876FD973E6

Скачать .torrent

Скачать

26 KB

Статус: проверено
Скачан: 2 раз
Размер: 320 MB
terms.php



Быстрый ответ

Имя:

      
Для отправки сообщений необходимо включить JavaScript
Показать сообщения:    

Текущее время: 07-Дек 11:34

Часовой пояс: UTC + 3


Вы можете начинать темы
Вы можете отвечать на сообщения
Вы не можете редактировать свои сообщения
Вы не можете удалять свои сообщения
Вы не можете голосовать в опросах
Вы не можете прикреплять файлы к сообщениям
Вы можете скачивать файлы