Моё выступление: Август исполняет Хабанеру / MeTube: August Sings Carmen Habanera (Даниель Мошель / Daniel Moshel) [2013, Австрия, музыкальная комедия, китч, ЛГБТ, короткий метр, HDRip-AVC] Original Fre + Sub Rus


Статистика раздачи [Обновить пиров]
Размер:  79 MB   |    Зарегистрирован:  1 год 1 месяц   |    Скачан:  0 раз

Полного источника не было: Никогда

 
   
 
 
 

[Цитировать]

Моё выступление: Август исполняет Хабанеру
MeTube: August Sings Carmen 'Habanera'- Страна: Австрия
Жанр: музыкальная комедия, китч, ЛГБТ, короткий метр
Год выпуска: 2013
Продолжительность: 00:04:06
Перевод: Субтитры (перевод Александры Сантагано-Горчаковой)
Cубтитры: русские
Оригинальная аудиодорожка: французский
Режиссер: Даниель Мошель / Daniel MoshelВ ролях: Август Шрам / August Schram (Nerd), Эльфи Вунш / Elfie Wunsch (Mother)
Описание: Забавная интерпретация Хабанеры из оперы Бизе "Кармен" – это дань уважения тысячам амбициозных пользователей YouTube и видео-блоггерам, одаренным и талантливым, прокладывающим путь в музыкальной карьере самостоятельно посредством интернета.
Доп. информация: показ был по Edem TV - Эгоист ТВ IPTV. Но нашел видео лучшего качества.
Награды: номинация на Гран-при жюри за лучшую короткометражку Sundance Film Festival 2014; приз жюри Semana Del Cine Experimental De Madrid 2013; номинация на лучшую короткометражку Landshut Short Film Festival2014; номинация на лучшую короткометражку Austrian Film Award, AT 2015; др. награды.

Качество видео: HDRip-AVC
Формат видео: MKV
Видео: AVC (H.264), 1152x640 (16:9), 25 fps, ~2500 kbps avg, 0.136 bit/pixel
Аудио: AC3, 2 ch, 48 kHz, ~192.00 kbps avg - французский
Формат субтитров: softsub (SSA/ASS)

Пример субтитров

Dialogue: 0,0:00:00.00,0:00:02.51,Default,,0,0,0,,{\pos(572,478)}Моё выступление:\NАвгуст исполняет "Хабанеру"Dialogue: 0,0:00:16.76,0:00:20.30,Default,,0,0,0,,У любви, как у пташки, крылья,Dialogue: 0,0:00:20.40,0:00:24.55,Default,,0,0,0,,Её нельзя никак поймать.Dialogue: 0,0:00:24.75,0:00:28.42,Default,,0,0,0,,Тщетны были бы все усилья,Dialogue: 0,0:00:28.62,0:00:32.26,Default,,0,0,0,,Но крыльев ей нам не связать.Dialogue: 0,0:00:32.46,0:00:36.52,Default,,0,0,0,,Всё напрасно – мольба и слёзы,Dialogue: 0,0:00:36.72,0:00:40.98,Default,,0,0,0,,И страстный взгляд, и томный вид,Dialogue: 0,0:00:41.18,0:00:44.65,Default,,0,0,0,,Безответная на угрозы,Dialogue: 0,0:00:44.85,0:00:49.52,Default,,0,0,0,,Куда ей вздумалось - летит.Dialogue: 0,0:00:51.88,0:00:57.50,Default,,0,0,0,,Любовь! Любовь!Dialogue: 0,0:00:58.67,0:01:04.34,Default,,0,0,0,,Любовь! Любовь!Dialogue: 0,0:01:04.54,0:01:08.23,Default,,0,0,0,,Любовь свободна, век кочуя,Dialogue: 0,0:01:08.43,0:01:11.78,Default,,0,0,0,,Законов всех она сильней.Dialogue: 0,0:01:11.98,0:01:16.55,Default,,0,0,0,,Меня не любишь, но люблю я,Dialogue: 0,0:01:16.75,0:01:22.02,Default,,0,0,0,,Так берегись любви моей!Dialogue: 0,0:01:22.22,0:01:24.79,Default,,0,0,0,,Меня не любишь ты,Dialogue: 0,0:01:24.99,0:01:30.22,Default,,0,0,0,,Так что ж, зато тебя люблю!Dialogue: 0,0:01:31.79,0:01:34.04,Default,,0,0,0,,Тебя люблю я.Dialogue: 0,0:01:34.24,0:01:43.97,Default,,0,0,0,,Так берегись любви моей!Dialogue: 0,0:01:50.92,0:01:54.79,Default,,0,0,0,,Думал ты - пташка уж поймалась,

MediaInfo

Общее
Уникальный идентификатор : 228103611086574838440790513674098944270 (0xAB9B285203D691CBAF55051FB061A90E)
Полное имя : E:\My Torrents 2\[apreder]MINI_MOVIES_09\[apreder]MM_MeTube_August_Sings_Carmen_Habanera(2013)HDRip.mkv
Формат : Matroska
Версия формата : Version 2
Размер файла : 79,4 Мбайт
Продолжительность : 4 м. 6 с.
Общий поток : 2702 Кбит/сек
Дата кодирования : UTC 2015-05-06 14:05:34
Программа кодирования : mkvmerge v7.8.0 ('River Man') 64bit built on Mar 27 2015 16:31:37
Библиотека кодирования : libebml v1.3.1 + libmatroska v1.4.2
Видео
Идентификатор : 1
Формат : AVC
Формат/Информация : Advanced Video Codec
Профиль формата : High@L4.1
Параметр CABAC формата : Да
Параметр ReFrames формата : 11 кадров
Идентификатор кодека : V_MPEG4/ISO/AVC
Продолжительность : 4 м. 6 с.
Битрейт : 2500 Кбит/сек
Ширина : 1152 пикселя
Высота : 640 пикселей
Соотношение сторон : 16:9
Режим частоты кадров : Постоянный
Частота кадров : 25,000 кадров/сек
Цветовое пространство : YUV
Субдискретизация насыщенности : 4:2:0
Битовая глубина : 8 бит
Тип развёртки : Прогрессивная
Бит/(Пиксели*Кадры) : 0.136
Размер потока : 72,2 Мбайт (91%)
Библиотека кодирования : x264 core 146 r2538 121396c
Настройки программы : cabac=1 / ref=11 / deblock=1:-1:-1 / analyse=0x3:0x133 / me=umh / subme=10 / psy=1 / psy_rd=1.00:0.15 / mixed_ref=1 / me_range=24 / chroma_me=1 / trellis=2 / 8x8dct=1 / cqm=0 / deadzone=21,11 / fast_pskip=1 / chroma_qp_offset=-3 / threads=6 / lookahead_threads=1 / sliced_threads=0 / nr=0 / decimate=1 / interlaced=0 / bluray_compat=0 / constrained_intra=0 / bframes=8 / b_pyramid=2 / b_adapt=2 / b_bias=0 / direct=3 / weightb=1 / open_gop=0 / weightp=2 / keyint=250 / keyint_min=25 / scenecut=40 / intra_refresh=0 / rc_lookahead=60 / rc=2pass / mbtree=1 / bitrate=2500 / ratetol=1.0 / qcomp=0.60 / qpmin=0 / qpmax=69 / qpstep=4 / cplxblur=20.0 / qblur=0.5 / vbv_maxrate=62500 / vbv_bufsize=78125 / nal_hrd=none / filler=0 / ip_ratio=1.40 / aq=1:1.00
Default : Да
Forced : Нет
Аудио
Идентификатор : 2
Формат : AC-3
Формат/Информация : Audio Coding 3
Расширение режима : CM (complete main)
Параметр Endianness формата : Big
Идентификатор кодека : A_AC3
Продолжительность : 4 м. 6 с.
Вид битрейта : Постоянный
Битрейт : 192 Кбит/сек
Каналы : 2 канала
Расположение каналов : Front: L R
Частота : 48,0 КГц
Битовая глубина : 16 бит
Метод сжатия : С потерями
Размер потока : 5,64 Мбайт (7%)
Язык : French
Default : Да
Forced : Нет
Текст
Идентификатор : 3
Формат : ASS
Идентификатор кодека : S_TEXT/ASS
Идентификатор кодека/Информация : Advanced Sub Station Alpha
Метод сжатия : Без потерь
Язык : Russian
Default : Да
Forced : Нет

Скриншот c названием фильма

Скриншоты

Резервные скриншоты

-[2'262]
[teatrix.ru].t3894.torrent 
Торрент: Зарегистрирован [ 2015-10-07 12:13 ] · 9F47DB6A000EA238A49F28B9C4AD7469465D5755

Скачать .torrent

Скачать

13 KB

Статус: проверено
Скачан: 0 раз
Размер: 79 MB
terms.php



Быстрый ответ

Имя:

      
Для отправки сообщений необходимо включить JavaScript
Показать сообщения:    

Текущее время: 06-Дек 20:59

Часовой пояс: UTC + 3


Вы можете начинать темы
Вы можете отвечать на сообщения
Вы не можете редактировать свои сообщения
Вы не можете удалять свои сообщения
Вы не можете голосовать в опросах
Вы не можете прикреплять файлы к сообщениям
Вы можете скачивать файлы