Самый грустный мальчик в мире / The Saddest Boy in the World (Джэми Трэвис / Jamie Travis) [2006, Канада, Комедия, DVDRip] VO + Sub Rus + Original Eng


Статистика раздачи [Обновить пиров]
Размер:  153 MB   |    Зарегистрирован:  1 год 1 месяц   |    Скачан:  0 раз

Полного источника не было: Никогда

 
   
 
 
 

[Цитировать]

Самый грустный мальчик в мире / The Saddest Boy in the World
Страна: Канада
Жанр: Комедия
Год выпуска: 2006
Продолжительность: 00:13:34
Перевод: Одноголосый закадровый
Cубтитры: русские
Оригинальная аудиодорожка: английский
Режиссер: Джэми Трэвис / Jamie Travis
В ролях: Бенжамин Б. Смит / Benjamin B. Smith, Кирстен Робек / Kirsten Robek
Описание: Тимоти Хиггинс, самый грустный мальчик во всем мире, готовится покончить жизнь самоубийством, во время празднования своего девятого Дня рождения.
Сэмпл: http://multi-up.com/1046417
Качество видео: DVDRip
Формат видео: AVI
Видео: 688x368 (1.87:1), 25 fps, XviD MPEG-4 ~1171 kbps avg, 0.19 bit/pixel
Аудио 1: 48 kHz, AC3 Dolby Digital, 2/0 (L,R) ch, ~192.00 kbps avg(Русский)
Аудио 2: 48 kHz, AC3 Dolby Digital, 2/0 (L,R) ch, ~192.00 kbps avg(Английский)
Формат субтитров: hardsub (неотключаемые)
Доп. информация о субтитрах: Русские вшитые (RedEagle)

MediaInfo

Общее
Полное имя : F:\С моей озвучкой\Самый грустный мальчик в мире.avi
Формат : AVI
Формат/Информация : Audio Video Interleave
Размер файла : 153 Мбайт
Продолжительность : 13 м.
Общий поток : 1571 Кбит/сек
Программа кодирования : VirtualDubModRus 1.5.10.2 (build 2542/release)
Библиотека кодирования : VirtualDubMod build 2542/release
Видео
Идентификатор : 0
Формат : MPEG-4 Visual
Профиль формата : Advanced Simple@L5
Параметр BVOP формата : 2
Параметр QPel формата : Нет
Параметр GMC формата : Без точки перехода
Параметр матрицы формата : Default (H.263)
Режим смешивания : Сжатый битовый поток
Идентификатор кодека : XVID
Идентификатор кодека/Подсказка : XviD
Продолжительность : 13 м.
Битрейт : 1173 Кбит/сек
Ширина : 688 пикселей
Высота : 368 пикселей
Соотношение сторон : 1,85:1
Частота кадров : 25,000 кадров/сек
Цветовое пространство : YUV
Субдискретизация насыщенности : 4:2:0
Битовая глубина : 8 бит
Тип развёртки : Прогрессивная
Метод сжатия : С потерями
Бит/(Пиксели*Кадры) : 0.185
Размер потока : 114 Мбайт (75%)
Библиотека кодирования : XviD 1.2.1 (UTC 2008-12-04)
Аудио #1
Идентификатор : 1
Формат : AC-3
Формат/Информация : Audio Coding 3
Расширение режима : CM (complete main)
Параметр Endianness формата : Big
Идентификатор кодека : 2000
Продолжительность : 13 м.
Вид битрейта : Постоянный
Битрейт : 192 Кбит/сек
Каналы : 2 канала
Расположение каналов : Front: L R
Частота : 48,0 КГц
Битовая глубина : 16 бит
Метод сжатия : С потерями
Размер потока : 18,7 Мбайт (12%)
Выравнивание : Разделение по промежуткам
Продолжительность промежутка : 40 мс. (1,00 видеокадр)
Время предзагрузки промежутка : 500 мс.
Аудио #2
Идентификатор : 2
Формат : AC-3
Формат/Информация : Audio Coding 3
Расширение режима : CM (complete main)
Параметр Endianness формата : Big
Идентификатор кодека : 2000
Продолжительность : 13 м.
Вид битрейта : Постоянный
Битрейт : 192 Кбит/сек
Каналы : 2 канала
Расположение каналов : Front: L R
Частота : 48,0 КГц
Битовая глубина : 16 бит
Метод сжатия : С потерями
Размер потока : 18,7 Мбайт (12%)
Выравнивание : Разделение по промежуткам
Продолжительность промежутка : 40 мс. (1,00 видеокадр)
Время предзагрузки промежутка : 500 мс.

Скриншоты

[teatrix.ru].t3897.torrent 
Торрент: Зарегистрирован [ 2015-10-07 12:13 ] · D527A4C13DB9EB65D8934765F0DC5C2AE02BF940

Скачать .torrent

Скачать

12 KB

Статус: проверено
Скачан: 0 раз
Размер: 153 MB
terms.php



Быстрый ответ

Имя:

      
Для отправки сообщений необходимо включить JavaScript
Показать сообщения:    

Текущее время: 07-Дек 11:35

Часовой пояс: UTC + 3


Вы можете начинать темы
Вы можете отвечать на сообщения
Вы не можете редактировать свои сообщения
Вы не можете удалять свои сообщения
Вы не можете голосовать в опросах
Вы не можете прикреплять файлы к сообщениям
Вы можете скачивать файлы