Тренируй свою левую / Soigne ton gauche (Рене Клеман / Rene Clement) [1936, Франция, короткометражка, комедия, BDRemux 1080p] [Criterion Collection] MVO + Sub (Rus, Eng) + Original Fre


Статистика раздачи [Обновить пиров]
Размер:  3.05 GB   |    Зарегистрирован:  1 год 1 месяц   |    Скачан:  0 раз

Полного источника не было: Никогда

 
   
 
 
 

[Цитировать]

Тренируй свою левую / Soigne ton gauche
Страна: Франция
Жанр: короткометражка, комедия
Год выпуска: 1936
Продолжительность: 00:13:23
Перевод: Профессиональный (многоголосый закадровый) Cinema Prestige
Cубтитры: русские, английские
Оригинальная аудиодорожка: французский-Режиссер: Рене Клеман / Rene Clement
В ролях: Жак Тати, Марк Мартелл, Робюр Кливиль, Жан Орель, Ван дер-Хаген
Описание: Крестьянский мужчина наблюдает за тренирующимся боксером и в результате внезапно завязавшейся драки оказывается на ринге.
IMDb || КиноПоиск-Тип релиза: BDRemux 1080p
Контейнер: MKV
Видео: MPEG-4 AVC Video, 1920x1080 at 23.976 fps, 32191 kbps
Аудио#1: Russian: 48 kHz, AC3, 2.0 ch, 192 kbps
Аудио#2: French: 48 kHz, AC3, 1.0 ch, 192 kbps
Формат субтитров: softsub (SRT)
Сэмпл

MediaInfo

General
Unique ID : 190340744400605353015381879626201257791 (0x8F324B3EDA540225A4D31C8FF12B573F)
Complete name : I:\Короткометражки Тати\Soigne.ton.gauche.1936.Criterion.BDRemux. rutracker.mkv
Format : Matroska
Format version : Version 2
File size : 3.05 GiB
Duration : 13mn 23s
Overall bit rate mode : Variable
Overall bit rate : 32.6 Mbps
Movie name : Release for RuTracker
Writing application : mkvmerge v5.0.1 ('Es ist Sommer') built on Nov 6 2011 16:23:40
Writing library : libebml v1.2.2 + libmatroska v1.3.0
Video
ID : 1
Format : AVC
Format/Info : Advanced Video Codec
Format profile : High@L4.1
Format settings, CABAC : Yes
Format settings, ReFrames : 4 frames
Codec ID : V_MPEG4/ISO/AVC
Duration : 13mn 23s
Bit rate mode : Variable
Bit rate : 31.5 Mbps
Maximum bit rate : 37.0 Mbps
Width : 1 920 pixels
Height : 1 080 pixels
Display aspect ratio : 16:9
Frame rate mode : Constant
Frame rate : 23.976 fps
Color space : YUV
Chroma subsampling : 4:2:0
Bit depth : 8 bits
Scan type : Progressive
Bits/(Pixel*Frame) : 0.635
Stream size : 2.95 GiB (97%)
Title : Soigne.ton.gauche.1936.Criterion.BDRemux. rutracker
Language : French
Default : Yes
Forced : No
Audio #1
ID : 2
Format : AC-3
Format/Info : Audio Coding 3
Mode extension : CM (complete main)
Format settings, Endianness : Big
Codec ID : A_AC3
Duration : 13mn 23s
Bit rate mode : Constant
Bit rate : 192 Kbps
Channel(s) : 2 channels
Channel positions : Front: L R
Sampling rate : 48.0 KHz
Bit depth : 16 bits
Compression mode : Lossy
Stream size : 18.4 MiB (1%)
Language : Russian
Default : Yes
Forced : No
Audio #2
ID : 3
Format : AC-3
Format/Info : Audio Coding 3
Mode extension : CM (complete main)
Format settings, Endianness : Big
Codec ID : A_AC3
Duration : 13mn 23s
Bit rate mode : Constant
Bit rate : 192 Kbps
Channel(s) : 1 channel
Channel positions : Front: C
Sampling rate : 48.0 KHz
Bit depth : 16 bits
Compression mode : Lossy
Stream size : 18.4 MiB (1%)
Language : French
Default : No
Forced : No
Text #1
ID : 4
Format : UTF-8
Codec ID : S_TEXT/UTF8
Codec ID/Info : UTF-8 Plain Text
Language : Russian
Default : No
Forced : No
Text #2
ID : 5
Format : UTF-8
Codec ID : S_TEXT/UTF8
Codec ID/Info : UTF-8 Plain Text
Language : English
Default : No
Forced : No

Скриншоты

[teatrix.ru].t3900.torrent 
Торрент: Зарегистрирован [ 2015-10-07 12:13 ] · B89DDBF4BF194052C574DEE96781448BEA0B3979

Скачать .torrent

Скачать

16 KB

Статус: проверено
Скачан: 0 раз
Размер: 3.05 GB
terms.php



Быстрый ответ

Имя:

      
Для отправки сообщений необходимо включить JavaScript
Показать сообщения:    

Текущее время: 06-Дек 22:54

Часовой пояс: UTC + 3


Вы можете начинать темы
Вы можете отвечать на сообщения
Вы не можете редактировать свои сообщения
Вы не можете удалять свои сообщения
Вы не можете голосовать в опросах
Вы не можете прикреплять файлы к сообщениям
Вы можете скачивать файлы