Дорога на... (Таисия Игуменцева) [2011, Россия, короткометражка, HDTV 1080i]


Статистика раздачи [Обновить пиров]
Размер:  1.8 GB   |    Зарегистрирован:  1 год 2 месяца   |    Скачан:  0 раз

Полного источника не было: Никогда

 
   
 
 
 

[Цитировать]

Дорога на... Страна: Россия
Жанр: короткометражка
Год выпуска: 2011
Продолжительность: 00:31:52
Перевод: Не требуется
Cубтитры: нет
Режиссер: Таисия Игуменцева
В ролях: Сергей Аброскин, Анна Рудь, Сергей Подколзин, Владимир Гориславец
Описание: Заурядный, ничем не примечательный молодой человек работает продавцом. С наступлением ночи он выходит во двор, окруженный высотными домами, и…илиФильм рассказывает о тридцатилетнем менеджере, который вечерами надевает свой лучший костюм, выходит во двор и громко посылает всех на...
«От собственной несвободы мы становимся одинокими. Есть разные способы переступать через себя, попытаться заявить о себе и найти кого-то похожего на себя. Я сама через это прошла. “Дорога на...” — фильм о внутренней несвободе и одиночестве людей в большом городе». Таисия Игуменцева.
Доп.информация: в фильме присутствует
Сэмпл: http://rusfolder.com/43409878

Тип релиза: HDTV 1080i
Контейнер: TS
Видео: AVC/H.264, PAL, 1920x1080 (16:9), 7056 Кбит/сек, 25.000 fps
Аудио 1: русский, MP2, 2ch, 48,0 КГц, 192 Кбит/сек
Аудио 2: русский, AC3, 6ch, 48,0 КГц, 448 Кбит/сек

MediaInfo

Общее
Идентификатор : 1 (0x1)
Полное имя : C:\Users\User\Desktop\Дорога на... (HDTV 1080i).ts
Формат : MPEG-TS
Размер файла : 1,80 Гбайт
Продолжительность : 31 м.
Режим общего битрейта : Переменный
Общий поток : 8103 Кбит/сек
Видео
Идентификатор : 3551 (0xDDF)
Идентификатор меню : 1 (0x1)
Формат : AVC
Формат/Информация : Advanced Video Codec
Профиль формата : Main@L4.0
Параметр CABAC формата : Да
Параметр ReFrames формата : 3 кадра
Идентификатор кодека : 27
Продолжительность : 31 м.
Битрейт : 7056 Кбит/сек
Ширина : 1920 пикселей
Высота : 1080 пикселей
Соотношение сторон : 16:9
Частота кадров : 25,000 кадров/сек
Стандарт вещания : Component
Цветовое пространство : YUV
Субдискретизация насыщенности : 4:2:0
Битовая глубина : 8 бит
Тип развёртки : Чересстрочная
Порядок развёртки : Верхнее поле первое
Бит/(Пиксели*Кадры) : 0.136
Размер потока : 1,57 Гбайт (87%)
Основные цвета : BT.709
Характеристики трансфера : BT.709
Коэффициенты матрицы : BT.709
colour_range : Limited
Аудио #1
Идентификатор : 3552 (0xDE0)
Идентификатор меню : 1 (0x1)
Формат : MPEG Audio
Версия формата : Version 1
Профиль формата : Layer 2
Идентификатор кодека : 3
Продолжительность : 31 м.
Вид битрейта : Постоянный
Битрейт : 192 Кбит/сек
Каналы : 2 канала
Частота : 48,0 КГц
Метод сжатия : С потерями
Размер потока : 43,8 Мбайт (2%)
Язык : Russian
Аудио #2
Идентификатор : 3553 (0xDE1)
Идентификатор меню : 1 (0x1)
Формат : AC-3
Формат/Информация : Audio Coding 3
Расширение режима : CM (complete main)
Параметр Endianness формата : Big
Идентификатор кодека : 6
Продолжительность : 31 м.
Вид битрейта : Постоянный
Битрейт : 448 Кбит/сек
Каналы : 6 каналов
Расположение каналов : Front: L C R, Side: L R, LFE
Частота : 48,0 КГц
Битовая глубина : 16 бит
Метод сжатия : С потерями
Размер потока : 102 Мбайт (6%)
Язык : Russian

Скриншот c названием фильма

Скриншоты


[teatrix.ru].t3901.torrent 
Торрент: Зарегистрирован [ 2015-10-07 12:13 ] · 00A4B04F39E9A03B954109B9F32B1247BA432E71

Скачать .torrent

Скачать

19 KB

Статус: проверено
Скачан: 0 раз
Размер: 1.8 GB
terms.php



Быстрый ответ

Имя:

      
Для отправки сообщений необходимо включить JavaScript
Показать сообщения:    

Текущее время: 10-Дек 00:13

Часовой пояс: UTC + 3


Вы можете начинать темы
Вы можете отвечать на сообщения
Вы не можете редактировать свои сообщения
Вы не можете удалять свои сообщения
Вы не можете голосовать в опросах
Вы не можете прикреплять файлы к сообщениям
Вы можете скачивать файлы