Дорога на... (Таисия Игуменцева) [2011, Россия, короткометражка, DVB] + Original Rus


Статистика раздачи [Обновить пиров]
Размер:  509 MB   |    Зарегистрирован:  1 год 1 месяц   |    Скачан:  0 раз

Полного источника не было: Никогда

 
   
 
 
 

[Цитировать]

Дорога на... Страна: Россия
Жанр: короткометражка
Год выпуска: 2011
Продолжительность: 00:31:52
Перевод: Не требуется
Cубтитры: нет
Оригинальная аудиодорожка: русский
Режиссер: Таисия Игуменцева
В ролях: Сергей Аброскин, Анна Рудь, Сергей Подколзин, Владимир Гориславец
Описание: Заурядный, ничем не примечательный молодой человек работает продавцом. С наступлением ночи он выходит во двор, окруженный высотными домами, и…
Доп.информация: в фильме присутствует
Сэмпл: http://rusfolder.com/43409663

Качество видео: DVB
Формат видео: TS
Видео: AVC/H.264, 720x576 (16:9), 1475 Кбит/сек, 25.000 fps
Аудио 1: русский, MP2, 2ch, 48,0 КГц, 192 Кбит/сек
Аудио 2: русский, AC3, 6ch, 48,0 КГц, 448 Кбит/сек

MediaInfo

Общее
Идентификатор : 1 (0x1)
Полное имя : C:\Users\User\Desktop\Дорога на... (DVB).ts
Формат : MPEG-TS
Размер файла : 509 Мбайт
Продолжительность : 31 м.
Режим общего битрейта : Переменный
Общий поток : 2232 Кбит/сек
Видео
Идентификатор : 2521 (0x9D9)
Идентификатор меню : 1 (0x1)
Формат : AVC
Формат/Информация : Advanced Video Codec
Профиль формата : Main@L3.0
Параметр CABAC формата : Да
Параметр ReFrames формата : 3 кадра
Параметр GOP формата : M=4, N=24
Идентификатор кодека : 27
Продолжительность : 31 м.
Битрейт : 1475 Кбит/сек
Ширина : 720 пикселей
Высота : 576 пикселей
Соотношение сторон : 16:9
Частота кадров : 25,000 кадров/сек
Стандарт вещания : Component
Цветовое пространство : YUV
Субдискретизация насыщенности : 4:2:0
Битовая глубина : 8 бит
Тип развёртки : Чересстрочная
Порядок развёртки : Верхнее поле первое
Бит/(Пиксели*Кадры) : 0.142
Размер потока : 336 Мбайт (66%)
Основные цвета : BT.601 PAL
Характеристики трансфера : BT.470 System B, BT.470 System G
Коэффициенты матрицы : BT.601
colour_range : Limited
Аудио #1
Идентификатор : 2522 (0x9DA)
Идентификатор меню : 1 (0x1)
Формат : MPEG Audio
Версия формата : Version 1
Профиль формата : Layer 2
Идентификатор кодека : 3
Продолжительность : 31 м.
Вид битрейта : Постоянный
Битрейт : 192 Кбит/сек
Каналы : 2 канала
Частота : 48,0 КГц
Метод сжатия : С потерями
Размер потока : 43,8 Мбайт (9%)
Язык : Russian
Аудио #2
Идентификатор : 2523 (0x9DB)
Идентификатор меню : 1 (0x1)
Формат : AC-3
Формат/Информация : Audio Coding 3
Расширение режима : CM (complete main)
Параметр Endianness формата : Big
Идентификатор кодека : 6
Продолжительность : 31 м.
Вид битрейта : Постоянный
Битрейт : 448 Кбит/сек
Каналы : 6 каналов
Расположение каналов : Front: L C R, Side: L R, LFE
Частота : 48,0 КГц
Битовая глубина : 16 бит
Метод сжатия : С потерями
Размер потока : 102 Мбайт (20%)
Язык : Russian

Скриншот c названием фильма

Скриншоты

[teatrix.ru].t3902.torrent 
Торрент: Зарегистрирован [ 2015-10-07 12:13 ] · 642825DFF29B8BC27799820A5F976114EA5B63AC

Скачать .torrent

Скачать

20 KB

Статус: проверено
Скачан: 0 раз
Размер: 509 MB
terms.php



Быстрый ответ

Имя:

      
Для отправки сообщений необходимо включить JavaScript
Показать сообщения:    

Текущее время: 06-Дек 13:12

Часовой пояс: UTC + 3


Вы можете начинать темы
Вы можете отвечать на сообщения
Вы не можете редактировать свои сообщения
Вы не можете удалять свои сообщения
Вы не можете голосовать в опросах
Вы не можете прикреплять файлы к сообщениям
Вы можете скачивать файлы