Моя машина / Watashi-wa beretto / It's Me Here, Bellett (Нагиса Осима / Nagisa Oshima) [1964, Япония, комедия, мелодрама, HDTVRip] Sub Rus + Original Jap


Статистика раздачи [Обновить пиров]
Размер:  350 MB   |    Зарегистрирован:  1 год 2 месяца   |    Скачан:  0 раз

Полного источника не было: Никогда

 
   
 
 
 

[Цитировать]

Моя машина / Watashi-wa beretto / It's Me Here, Bellett- -Страна: Япония
Жанр: комедия, мелодрама
Год выпуска: 1964
Продолжительность: 00:26:35-Перевод: Субтитры (Михаил Васильев)-Cубтитры: русские [отдельно]
Оригинальная аудиодорожка: японский
Режиссер: Нагиса Осима / Nagisa Oshima
В ролях: Акико Кояма
Описание: Этот фильм, состоящий из 3 новелл, снят в 1964 в рамках рекламной компании машины Исузу Беллетт компании Исузу Моторс. Эту модель японцы выпускали до середины 1970-х.
Дополнительная информация: инициатор - Алексей Проскуряков ака Aleks Punk
Релиз от -
Качество видео: HDTVRip
Формат видео: AVI
Видео: MPEG-4 Visual at 1608 Кбит/сек; 688 x 304 (2.263) at 23.976 fps
Аудио: AC-3 at 224 Кбит/сек; 2 канала, 48,0 КГц
Автор -

Субтитры

1
00:00:00,298 --> 00:00:06,123
Ассоциация Режиссеров Японии
представляет
2
00:00:06,297 --> 00:00:12,136
МОЯ МАШИНА
3
00:00:12,302 --> 00:00:16,128
Проект Ясудзиро Одзу.
4
00:00:16,327 --> 00:00:18,983
Фильм снят при поддержке
Исузу Моторс
5
00:00:26,054 --> 00:00:35,339
Композитор:
Хакидэо Накамура
6
00:00:35,559 --> 00:00:38,559
В ролях:
Асо Сато, Сумие Като, Акико Кояма
7
00:00:59,433 --> 00:01:01,358
Брысь!
8
00:01:03,060 --> 00:01:04,650
Доброе утро!
9
00:01:07,134 --> 00:01:08,337
Привет!
10
00:01:10,228 --> 00:01:11,744
Вот молодежь.
11
00:01:12,740 --> 00:01:16,268
Заимел свою машину
и мне больше не помогает.
12
00:01:16,757 --> 00:01:18,085
Ну, погоди.
13
00:01:18,235 --> 00:01:19,880
Удачи!
14
00:01:29,409 --> 00:01:30,951
Ой, извини.
15
00:02:07,754 --> 00:02:08,995
Прекрати!
16
00:02:10,394 --> 00:02:11,831
Как громко!
17
00:02:20,197 --> 00:02:21,761
Пошли вон!
18
00:02:32,619 --> 00:02:34,330
Я ухожу.
19
00:02:34,943 --> 00:02:37,610
Ночевать не придешь?
20
00:02:39,654 --> 00:02:41,554
Покорми рыбок.
21
00:02:42,802 --> 00:02:44,250
Проклятые дети.
22
00:03:05,154 --> 00:03:06,631
Как красиво!

MediaInfo

Видео
Идентификатор : 0
Формат : MPEG-4 Visual
Профиль формата : Advanced Simple@L5
Параметр BVOP формата : 1
Параметр QPel формата : Нет
Параметр GMC формата : Без точки перехода
Параметр матрицы формата : Default (MPEG)
Идентификатор кодека : XVID
Идентификатор кодека/Подсказка : XviD
Продолжительность : 26 м.
Битрейт : 1608 Кбит/сек
Ширина : 688 пикселей
Высота : 304 пикселя
Соотношение сторон : 2,25:1
Частота кадров : 23,976 кадра/сек
Цветовое пространство : YUV
Субдискретизация насыщенности : 4:2:0
Битовая глубина : 8 бит
Тип развёртки : Прогрессивная
Метод сжатия : С потерями
Бит/(Пиксели*Кадры) : 0.321
Размер потока : 306 Мбайт (87%)
Библиотека кодирования : XviD 1.2.1 (UTC 2008-12-04)
Аудио
Идентификатор : 1
Формат : AC-3
Формат/Информация : Audio Coding 3
Расширение режима : CM (complete main)
Параметр Endianness формата : Big
Идентификатор кодека : 2000
Продолжительность : 26 м.
Вид битрейта : Постоянный
Битрейт : 224 Кбит/сек
Каналы : 2 канала
Расположение каналов : Front: L R
Частота : 48,0 КГц
Битовая глубина : 16 бит
Метод сжатия : С потерями
Размер потока : 42,6 Мбайт (12%)
Выравнивание : Разделение по промежуткам
Продолжительность промежутка : 42 мс. (1,00 видеокадр)
Время предзагрузки промежутка : 500 мс.
Общее
Полное имя : D:\Фильмы\Азиатские\Моя машина Осима\It's Me Here, Bellett.1964.HDTVRip.XviD.350MB. rip by [Assassin's Creed]\It's Me Here, Bellett.1964.HDTVRip.XviD.350MB. rip by [Assassin's Creed].rus.srt
Формат : SubRip
Размер файла : 13,1 Кбайт
Текст
Формат : SubRip
Метод сжатия : Без потерь
Общее
Полное имя : D:\Фильмы\Азиатские\Моя машина Осима\It's Me Here, Bellett.1964.HDTVRip.XviD.350MB. rip by [Assassin's Creed]\It's Me Here, Bellett.1964.HDTVRip.XviD.350MB. rip by [Assassin's Creed].torrent
Размер файла : 14,1 Кбайт

Скриншот c названием фильма

Скриншоты

[teatrix.ru].t3906.torrent 
Торрент: Зарегистрирован [ 2015-10-07 12:13 ] · 2B8BF0FA860D57C0100EBA76C93CC7A17AC5BB

Скачать .torrent

Скачать

14 KB

Статус: проверено
Скачан: 0 раз
Размер: 350 MB
terms.php



Быстрый ответ

Имя:

      
Для отправки сообщений необходимо включить JavaScript
Показать сообщения:    

Текущее время: 08-Дек 19:08

Часовой пояс: UTC + 3


Вы можете начинать темы
Вы можете отвечать на сообщения
Вы не можете редактировать свои сообщения
Вы не можете удалять свои сообщения
Вы не можете голосовать в опросах
Вы не можете прикреплять файлы к сообщениям
Вы можете скачивать файлы