Необычный человек / Quelqu'un d'extraordinaire (Монья Шокри / Monia Chokri) [2013, Канада, короткометражка, драма, комедия, WEB-DLRip] Sub Rus + Original Fre


Статистика раздачи [Обновить пиров]
Размер:  396 MB   |    Зарегистрирован:  1 год 1 месяц   |    Скачан:  3 раза

Полного источника не было: 3 месяца 1 день

 
   
 
 
 

[Цитировать]

Необычный человек / Quelqu'un d'extraordinaireГод выпуска: 2013
Страна: Канада
Жанр: короткометражка, драма, комедия
Продолжительность: 00:28:28
Перевод: Субтитры
Cубтитры: русские (Myfrenchfilmfestival)
Оригинальная аудиодорожка: французский
Режиссер: Монья Шокри / Monia Chokri
Сценарий: Монья Шокри / Monia Chokri
Продюсер: Нэнси Грант / Nancy Grant
Оператор: Жози Дешайе / Josée Deshaies
В ролях: Эмили Бибо, Мэгали Лепин Блондо, Анн-Элизабет Боссе, Эвелин Брошу, Софи Кадьо, Мэрилин Кастонгуэй, Энни Дорвал, Эмили Гилберт, Лоранс Лебёф-Описание: Саре 30 лет. Она красива и умна, и у нее есть все для того, чтобы преуспеть в жизни. Но ее беспокойства и страхи не быть исключительной загоняют ее в состояние инертности. Одним январским утром, после временной потери памяти, она просыпается в незнакомом ей пригородном доме. Этот случай пробудит в ней желание перестроить свою жизнь. Для этого ей необходимо разрушить все, что ее окружает, начиная со своих подруг.-Рейтинг
Кинопоиск
IMDB-Качество: WEB-DLRip
Формат: AVI
Видео: XviD; 704x384 (16:9); 1744 Kbps; 25 fps; 0,258 bpp
Аудио: MP3; 192 Kbps; CBR; 2 ch; 48.0 KHz-

MI

Format : AVI
Format/Info : Audio Video Interleave
File size : 396 MiB
Duration : 28mn 28s
Overall bit rate : 1 947 Kbps
Writing application : VirtualDubMod 1.5.10.3 | www.virtualdub-fr.org || (build 2550/release)
Writing library : VirtualDubMod build 2550/release
Video
ID : 0
Format : MPEG-4 Visual
Format profile : Advanced Simple@L5
Format settings, BVOP : 1
Format settings, QPel : No
Format settings, GMC : No warppoints
Format settings, Matrix : Default (MPEG)
Codec ID : XVID
Codec ID/Hint : XviD
Duration : 28mn 28s
Bit rate : 1 745 Kbps
Width : 704 pixels
Height : 384 pixels
Display aspect ratio : 1.85:1
Frame rate : 25.000 fps
Color space : YUV
Chroma subsampling : 4:2:0
Bit depth : 8 bits
Scan type : Progressive
Compression mode : Lossy
Bits/(Pixel*Frame) : 0.258
Stream size : 355 MiB (90%)
Writing library : XviD 1.2.1 (UTC 2008-12-04)
Audio
ID : 1
Format : MPEG Audio
Format version : Version 1
Format profile : Layer 3
Codec ID : 55
Codec ID/Hint : MP3
Duration : 28mn 28s
Bit rate mode : Constant
Bit rate : 192 Kbps
Channel(s) : 2 channels
Sampling rate : 48.0 KHz
Compression mode : Lossy
Stream size : 39.1 MiB (10%)
Alignment : Aligned on interleaves
Interleave, duration : 40 ms (1.00 video frame)
Interleave, preload duration : 504 ms
Writing library : LAME3.99r
Encoding settings : -m s -V 4 -q 0 -lowpass 18.6 -b 192

Скриншоты


[teatrix.ru].t3907.torrent 
Торрент: Зарегистрирован [ 2015-10-07 12:13 ] · 7B29482839CA57B235D263AE1FCFADF43BEF9B1D

Скачать .torrent

Скачать

16 KB

Статус: проверено
Скачан: 3 раз
Размер: 396 MB
terms.php



Быстрый ответ

Имя:

      
Для отправки сообщений необходимо включить JavaScript
Показать сообщения:    

Текущее время: 04-Дек 23:23

Часовой пояс: UTC + 3


Вы можете начинать темы
Вы можете отвечать на сообщения
Вы не можете редактировать свои сообщения
Вы не можете удалять свои сообщения
Вы не можете голосовать в опросах
Вы не можете прикреплять файлы к сообщениям
Вы можете скачивать файлы