Пустынный берег / Tühirand (Вейко Ыунпуу / Veiko Õunpuu) [2006, Эстония, драма, короткометражка, DVDRip] VO (Fatumovich) + Sub Rus, Eng + Original


Статистика раздачи [Обновить пиров]
Размер:  741 MB   |    Зарегистрирован:  1 год 2 месяца   |    Скачан:  0 раз

Полного источника не было: Никогда

 
   
 
 
 

[Цитировать]

Пустынный берег / Tühirand- Страна: Эстония
Жанр: драма, короткометражка
Год выпуска: 2006
Продолжительность: 00:43:07
Перевод: Одноголосый закадровый - Fatumovich
Cубтитры: русские, английские
Оригинальная аудиодорожка: эстонский
Режиссер: Вейко Ыунпуу / Veiko Õunpuu
В ролях: Рэйн Толк, Таави Эельмя, Маарья Якобсон, Миртел Пола, Юхан Ульфсак-Описание: Фильм снят по одноименному произведению эстонского писателя Мати Унта.
Молодой интеллектуал Мати попадает в ситуацию, в которой он должен провести выходные со своей женой Хелиной и её любовником Эдуардом. Они втроём едут на дачу в окружение величественных лесных пейзажей и пустынного пляжа. Мати то ли из-за ревности, то ли из-за гордости решает вернуть жену, но не знает как, и ситуация начинает напоминать замкнутый круг. Что такое любовь? Кто может верить, что она существует? И есть ли вообще что-нибудь, во что можно верить? Этот фильм с большой точностью изображает что значит чувствовать любовь, будучи эстонцем, привыкшим к низким температурам и подавленным эмоциям.- -
Качество видео: DVDRip
Формат видео: AVI
Видео: XviD, 720x416 25.00fps 2131kbps
Аудио 1: MP3 44100Hz stereo 128kbps
Аудио 2: MP3 48000Hz stereo 128kbps
Формат субтитров: softsub (SRT)

MediaInfo

General
Complete name : C:\Users\Natalia\Desktop\Tuhirand\Tuhirand.avi
Format : AVI
Format/Info : Audio Video Interleave
File size : 741 MiB
Duration : 43mn 7s
Overall bit rate mode : Variable
Overall bit rate : 2 402 Kbps
Writing application : VirtualDubMod 1.5.10.2 (build 2540/release)
Writing library : VirtualDubMod build 2540/release
Video
ID : 0
Format : MPEG-4 Visual
Format profile : Advanced Simple@L5
Format settings, BVOP : Yes
Format settings, QPel : No
Format settings, GMC : No warppoints
Format settings, Matrix : Custom
Codec ID : XVID
Codec ID/Hint : XviD
Duration : 43mn 7s
Bit rate : 2 131 Kbps
Width : 720 pixels
Height : 416 pixels
Display aspect ratio : 1.731
Frame rate : 25.000 fps
Color space : YUV
Chroma subsampling : 4:2:0
Bit depth : 8 bits
Scan type : Progressive
Compression mode : Lossy
Bits/(Pixel*Frame) : 0.285
Stream size : 657 MiB (89%)
Writing library : XviD 0039 build=2005.09.25 (UTC 2005-09-25)
Audio #1
ID : 1
Format : MPEG Audio
Format version : Version 1
Format profile : Layer 3
Mode : Joint stereo
Codec ID : 55
Codec ID/Hint : MP3
Duration : 43mn 7s
Bit rate mode : Constant
Bit rate : 128 Kbps
Channel(s) : 2 channels
Sampling rate : 44.1 KHz
Compression mode : Lossy
Stream size : 39.5 MiB (5%)
Alignment : Split accross interleaves
Interleave, duration : 40 ms (1.00 video frame)
Interleave, preload duration : 500 ms
Audio #2
ID : 2
Format : MPEG Audio
Format version : Version 1
Format profile : Layer 3
Mode : Joint stereo
Mode extension : MS Stereo
Codec ID : 55
Codec ID/Hint : MP3
Duration : 43mn 7s
Bit rate mode : Variable
Bit rate : 128 Kbps
Channel(s) : 2 channels
Sampling rate : 48.0 KHz
Compression mode : Lossy
Stream size : 38.7 MiB (5%)
Alignment : Aligned on interleaves
Interleave, duration : 24 ms (0.60 video frame)
Interleave, preload duration : 146 ms
Writing library : LAME3.96r
Encoding settings : -m j -V 4 -q 2 -lowpass 17.5 --abr 128

Скриншот c названием фильма

[teatrix.ru].t3908.torrent 
Торрент: Зарегистрирован [ 2015-10-07 12:13 ] · DED9B1D4D22B429C67DF756067BFB051165259D0

Скачать .torrent

Скачать

15 KB

Статус: проверено
Скачан: 0 раз
Размер: 741 MB
terms.php



Быстрый ответ

Имя:

      
Для отправки сообщений необходимо включить JavaScript
Показать сообщения:    

Текущее время: 09-Дек 01:05

Часовой пояс: UTC + 3


Вы можете начинать темы
Вы можете отвечать на сообщения
Вы не можете редактировать свои сообщения
Вы не можете удалять свои сообщения
Вы не можете голосовать в опросах
Вы не можете прикреплять файлы к сообщениям
Вы можете скачивать файлы