Экстрасистолия / Extrasystole (Элис Дуард / Alice Douard) [2013, короткометражка, драма, мелодрама, WEBRip] Sub Rus + Original Fre


Статистика раздачи [Обновить пиров]
Размер:  422 MB   |    Зарегистрирован:  1 год 1 месяц   |    Скачан:  0 раз

Полного источника не было: Никогда

 
   
 
 
 

[Цитировать]

Экстрасистолия / ExtrasystoleГод выпуска: 2013
Страна: Франция
Жанр: короткометражка, драма, мелодрама
Продолжительность: 00:35:48
Перевод: Субтитры
Cубтитры: русские (Myfrenchfilmfestival)
Оригинальная аудиодорожка: французский
Режиссер: Элис Дуард / Alice Douard
Сценарий: Элис Дуард / Alice Douard
Оператор: Joanne Delachair
В ролях:Матильда Поймиро, Летиция Дош, Клер Барро, Пабло Цукер, Софи Гэльперин, Эдриан де Ван, Реми Шивильяр-Описание: Экстрасистолия: нарушение ритма сердца, характеризующееся возникновением преждевременных сокращений сердца.-Рейтинг
[url=http://www.kinopoisk.ru/film/826607/‎]Кинопоиск[/url]
IMDB-Качество: WEBRip
Формат: AVI
Видео: XviD; 720x400 (16:9); 1445 Kbps; 25 fps; 0,201 bpp
Аудио: MP3; 192 Kbps; CBR; 2 ch; 48.0 KHz
Формат субтитров: hardsub (неотключаемые)-

MI

Format : AVI
Format/Info : Audio Video Interleave
File size : 422 MiB
Duration : 35mn 48s
Overall bit rate : 1 647 Kbps
Writing application : VirtualDubMod 1.5.10.3 | www.virtualdub-fr.org || (build 2550/release)
Writing library : VirtualDubMod build 2550/release
Video
ID : 0
Format : MPEG-4 Visual
Format profile : Advanced Simple@L5
Format settings, BVOP : 1
Format settings, QPel : No
Format settings, GMC : No warppoints
Format settings, Matrix : Default (MPEG)
Codec ID : XVID
Codec ID/Hint : XviD
Duration : 35mn 48s
Bit rate : 1 446 Kbps
Width : 720 pixels
Height : 400 pixels
Display aspect ratio : 16:9
Frame rate : 25.000 fps
Color space : YUV
Chroma subsampling : 4:2:0
Bit depth : 8 bits
Scan type : Progressive
Compression mode : Lossy
Bits/(Pixel*Frame) : 0.201
Stream size : 370 MiB (88%)
Writing library : XviD 1.2.1 (UTC 2008-12-04)
Audio
ID : 1
Format : MPEG Audio
Format version : Version 1
Format profile : Layer 3
Codec ID : 55
Codec ID/Hint : MP3
Duration : 35mn 48s
Bit rate mode : Constant
Bit rate : 192 Kbps
Channel(s) : 2 channels
Sampling rate : 48.0 KHz
Compression mode : Lossy
Stream size : 49.2 MiB (12%)
Alignment : Aligned on interleaves
Interleave, duration : 40 ms (1.00 video frame)
Interleave, preload duration : 504 ms
Writing library : LAME3.99r
Encoding settings : -m s -V 4 -q 0 -lowpass 18.6 -b 192

Скриншоты



[teatrix.ru].t3909.torrent 
Торрент: Зарегистрирован [ 2015-10-07 12:13 ] · D709D9E1B042AE56E2A9D9D9D19A4F811FB652AC

Скачать .torrent

Скачать

17 KB

Статус: проверено
Скачан: 0 раз
Размер: 422 MB
terms.php



Быстрый ответ

Имя:

      
Для отправки сообщений необходимо включить JavaScript
Показать сообщения:    

Текущее время: 03-Дек 12:39

Часовой пояс: UTC + 3


Вы можете начинать темы
Вы можете отвечать на сообщения
Вы не можете редактировать свои сообщения
Вы не можете удалять свои сообщения
Вы не можете голосовать в опросах
Вы не можете прикреплять файлы к сообщениям
Вы можете скачивать файлы