Беспомощное бесплотное существо / The Helpless Creature / An Créatúr (Петер Футт / Peter Foott) [2007, Ирландия, Короткометражный, драма, HDTVRip] VO + Sub Rus + Original Eng


Статистика раздачи [Обновить пиров]
Размер:  455 MB   |    Зарегистрирован:  1 год 1 месяц   |    Скачан:  0 раз

Полного источника не было: Никогда

 
   
 
 
 

[Цитировать]

Беспомощное бесплотное существо / The Helpless Creature / An Créatúr
Страна: Ирландия
Жанр: Короткометражный, драма
Год выпуска: 2007
Продолжительность: 00:23:37
Перевод: Одноголосый закадровый
Cубтитры: русские, английские встроенные
Оригинальная аудиодорожка: английский
Режиссер: Петер Футт / Peter Foott
В ролях: Роберт Шиэн, Лесли Конрой, Брендан МакДональд, Кевин О'Двайр, Джонни Уорд, Диллон Поттер, Сэм Форд
Описание: Неординарная история двух братьев, родившихся и растущих в обычной Ирландской семье. История рассказывается от лица младшего брата...
Нельзя не отметить блистательную игру актеров. И тех, что сыграли роль старшего брата в разном возрасте, так и актера, сыгравшего младшего брата (это самая "вкусная" часть интриги фильма - поэтому я не стану подробно об этом говорить). Также хочется обратить внимание на изумительную работу оператора, на прекрасную драматургию, хорошую музыку к фильму и.... Совершенно неожиданную концовку!
Сэмпл: http://multi-up.com/1034952
Качество видео: HDTVRip
Формат видео: AVI
Видео: MPEG-4 Visual at 2295 Кбит/сек: 1280 x 720 (1.778) at 25.000 fps
Аудио 1: MPEG Audio at 192 Кбит/сек : 2 канала, 48,0 КГц(Русский)
Аудио 2: MPEG Audio at 192 Кбит/сек : 2 канала, 48,0 КГц(Английский)
Формат субтитров: softsub (SRT)
Доп. информация о субтитрах: Русские внешние (malabar)

MediaInfo

Общее
Полное имя : F:\С моей озвучкой\Беспомощное бесплотное существо\An Créatúr.avi
Формат : AVI
Формат/Информация : Audio Video Interleave
Размер файла : 455 Мбайт
Продолжительность : 23 м.
Общий поток : 2694 Кбит/сек
Программа кодирования : VirtualDubModRus 1.5.10.2 (build 2542/release)
Библиотека кодирования : VirtualDubMod build 2542/release
Видео
Идентификатор : 0
Формат : MPEG-4 Visual
Профиль формата : Advanced Simple@L5
Параметр BVOP формата : 2
Параметр QPel формата : Нет
Параметр GMC формата : Без точки перехода
Параметр матрицы формата : Default (H.263)
Идентификатор кодека : XVID
Идентификатор кодека/Подсказка : XviD
Продолжительность : 23 м.
Битрейт : 2295 Кбит/сек
Ширина : 1280 пикселей
Высота : 720 пикселей
Соотношение сторон : 16:9
Частота кадров : 25,000 кадров/сек
Цветовое пространство : YUV
Субдискретизация насыщенности : 4:2:0
Битовая глубина : 8 бит
Тип развёртки : Прогрессивная
Метод сжатия : С потерями
Бит/(Пиксели*Кадры) : 0.100
Размер потока : 388 Мбайт (85%)
Библиотека кодирования : XviD 1.2.1 (UTC 2008-12-04)
Аудио #1
Идентификатор : 1
Формат : MPEG Audio
Версия формата : Version 1
Профиль формата : Layer 3
Режим : Joint stereo
Расширение режима : MS Stereo
Идентификатор кодека : 55
Идентификатор кодека/Подсказка : MP3
Продолжительность : 23 м.
Вид битрейта : Постоянный
Битрейт : 192 Кбит/сек
Каналы : 2 канала
Частота : 48,0 КГц
Метод сжатия : С потерями
Размер потока : 32,5 Мбайт (7%)
Выравнивание : Соединение по промежуткам
Продолжительность промежутка : 40 мс. (1,00 видеокадр)
Время предзагрузки промежутка : 504 мс.
Библиотека кодирования : LAME3.96
Аудио #2
Идентификатор : 2
Формат : MPEG Audio
Версия формата : Version 1
Профиль формата : Layer 3
Режим : Joint stereo
Расширение режима : MS Stereo
Идентификатор кодека : 55
Идентификатор кодека/Подсказка : MP3
Продолжительность : 23 м.
Вид битрейта : Постоянный
Битрейт : 192 Кбит/сек
Каналы : 2 канала
Частота : 48,0 КГц
Метод сжатия : С потерями
Размер потока : 32,5 Мбайт (7%)
Выравнивание : Разделение по промежуткам
Продолжительность промежутка : 40 мс. (1,00 видеокадр)
Время предзагрузки промежутка : 500 мс.
Библиотека кодирования : LAME3.98

Скриншоты

[teatrix.ru].t3912.torrent 
Торрент: Зарегистрирован [ 2015-10-07 12:13 ] · B3705150761E1B0238F45395F85B5478E685EF61

Скачать .torrent

Скачать

18 KB

Статус: проверено
Скачан: 0 раз
Размер: 455 MB
terms.php



Быстрый ответ

Имя:

      
Для отправки сообщений необходимо включить JavaScript
Показать сообщения:    

Текущее время: 04-Дек 23:22

Часовой пояс: UTC + 3


Вы можете начинать темы
Вы можете отвечать на сообщения
Вы не можете редактировать свои сообщения
Вы не можете удалять свои сообщения
Вы не можете голосовать в опросах
Вы не можете прикреплять файлы к сообщениям
Вы можете скачивать файлы