Я могла быть твоей бабушкой / Je pourrais être votre grand-mère (Бернар Танги / Bernard Tanguy) [2010, Франция, короткометражный, комедия, драма, DVB] MVO (Позитив)


Статистика раздачи [Обновить пиров]
Размер:  827 MB   |    Зарегистрирован:  1 год 2 месяца   |    Скачан:  0 раз

Полного источника не было: Никогда

 
   
 
 
 

[Цитировать]

Я могла быть твоей бабушкой / Je pourrais être votre grand-mère
Страна: Франция
Жанр: короткометражный, комедия, драма,
Год выпуска: 2010
Продолжительность: 00:18:39
Перевод: Профессиональный (многоголосый закадровый) Позитив
Cубтитры: нет
Режиссер: Бернар Танги / Bernard Tanguy
В ролях: Жан-Туссен Бернард
Ioana Geonea
Кристина
Madalin
Elena
Constantin
Описание: Молодой адвокат видит, что бездомная румынская старушка, расположившаяся возле его дома со своими пожитками, похожа на его бабушку. Однажды он делает для нее картонную карточку с надписью: «Я могла бы быть твоей бабушкой». Прохожие неожиданно становятся очень щедры к бездомной. Остальные обитатели улицы обращаются к молодому человеку за новыми карточками, а он охотно помогает.
Доп. информация: За запись фильма спасибо alenavova
Сезар, 2012 год
Победитель:
Лучший короткометражный фильм
Сэмпл: https://yadi.sk/i/L-AjX0eYenHSP
Качество видео: DVB
Формат видео: MKV
Видео: MPEG2 Video 720x576 25fps 6 311 kbps avg 0.579 bit/pixel
Аудио: MPEG Audio 48000Hz stereo 192kbps

MediaInfo

Я могла быть твоей бабушкой - Je pourrais être votre grand-mère [by alenavova].mkv
Format : Matroska
Format version : Version 4 / Version 2
File size : 827 MiB
Duration : 18mn 39s
Overall bit rate mode : Variable
Overall bit rate : 6 194 Kbps
Encoded date : UTC 2015-02-19 14:40:37
Writing application : mkvmerge v6.5.0 ('Isn't she lovely') built on Oct 20 2013 12:50:05
Writing library : libebml v1.3.0 + libmatroska v1.4.1
Video
ID : 1
Format : MPEG Video
Format version : Version 2
Format profile : Main@Main
Format settings, BVOP : Yes
Format settings, Matrix : Default
Format settings, GOP : M=3, N=15
Codec ID : V_MPEG2
Codec ID/Info : MPEG 1 or 2 Video
Duration : 18mn 39s
Bit rate mode : Variable
Bit rate : 5 879 Kbps
Maximum bit rate : 6 000 Kbps
Width : 720 pixels
Height : 576 pixels
Display aspect ratio : 4:3
Frame rate mode : Constant
Frame rate : 25.000 fps
Standard : PAL
Color space : YUV
Chroma subsampling : 4:2:0
Bit depth : 8 bits
Scan type : Progressive
Compression mode : Lossy
Bits/(Pixel*Frame) : 0.567
Time code of first frame : 00:00:00:00
Time code source : Group of pictures header
Stream size : 785 MiB (95%)
Writing library : (dvd5: Jun 16 2014)
Default : Yes
Forced : No
Color primaries : BT.601 PAL
Transfer characteristics : BT.470 System B, BT.470 System G
Matrix coefficients : BT.601
Audio
ID : 2
Format : MPEG Audio
Format version : Version 1
Format profile : Layer 2
Codec ID : A_MPEG/L2
Codec ID/Hint : MP2
Duration : 18mn 39s
Bit rate mode : Constant
Bit rate : 192 Kbps
Channel(s) : 2 channels
Sampling rate : 48.0 KHz
Compression mode : Lossy
Stream size : 25.6 MiB (3%)
Language : Russian
Default : Yes
Forced : No

Скриншоты

[teatrix.ru].t3914.torrent 
Торрент: Зарегистрирован [ 2015-10-07 12:13 ] · D94326A6FC391F6543D44CEF1D816F4BF67BCD15

Скачать .torrent

Скачать

17 KB

Статус: проверено
Скачан: 0 раз
Размер: 827 MB
terms.php



Быстрый ответ

Имя:

      
Для отправки сообщений необходимо включить JavaScript
Показать сообщения:    

Текущее время: 11-Дек 14:58

Часовой пояс: UTC + 3


Вы можете начинать темы
Вы можете отвечать на сообщения
Вы не можете редактировать свои сообщения
Вы не можете удалять свои сообщения
Вы не можете голосовать в опросах
Вы не можете прикреплять файлы к сообщениям
Вы можете скачивать файлы