Ты свистни - тебя не заставлю я ждать / Whistle and I'll Come to You (Джонатан Миллер / Jonathan Miller) [1968, Великобритания, мистика, драма, DVD5 (Custom)] + Sub Rus + Original Eng


Статистика раздачи [Обновить пиров]
Размер:  3.86 GB   |    Зарегистрирован:  1 год 1 месяц   |    Скачан:  0 раз

Полного источника не было: Никогда

 
   
 
 
 

[Цитировать]

Ты свистни - тебя не заставлю я ждать / Whistle and I'll Come to You
Страна: Великобритания
Студия: BBC
Жанр: мистика, драма
Год выпуска: 1968
Продолжительность: 0:41:55
Перевод: Субтитры
Cубтитры: русские
Оригинальная аудиодорожка: английский
Режиссер: Джонатан Миллер / Jonathan Miller
В ролях: Майкл Хордерн, Амброз Когхилл, Джордж Вудбридж, Искадновский
Описание: Фильм снят по мотивам одноименного рассказа М. Р. Джеймса и рассказывает о встрече ученого-рационалиста Паркина со сверхъестественным, с тем, что чванливый профессор не может ни понять, ни принять.
17 эпизод 1 сезона Британского сериала Omnibus http://www.imdb.com/title/tt0200358/?ref_=tt_ov_inf
При пересборе двд были использованы программы:
PgcDemux - разделение компонентов диска на файлы
Muxman - мультиплексирование и авторинг DVD
VobBlanker - реавторинг DVD

Скрин завершения проекта

Бонусы: Интервью Рэмси Кэмпбелл / Ramsey Campbell, аудиоспектакль Whistle and I'll Come to You, рассказ читает М. Р. Джеймс (Б/П)
Сэмпл: http://sendfile.su/1077258
Тип релиза: DVD5 (Custom)
Контейнер: DVD-Video
Видео: PAL 4:3 (720x576) VBR
Аудио: English (Dolby AC3, 192 Кбит/сек, 2 ch)
Формат субтитров: softsub (SRT)

DVDInfo

Size: 3.86 Gb ( 4 047 204 KBytes ) - DVD-5
Enabled regions: 1, 2, 3, 4, 5, 6, 7, 8
VTS_01 :
Play Length: 00:00:23
Video: PAL 4:3 (720x576) VBR
Audio:
English (Dolby AC3, 2 ch)
VTS_02 :
Play Length: 00:41:56+00:15:40+00:26:41+00:00:01+00:41:36
Video: PAL 4:3 (720x576) VBR
Audio:
English (Dolby AC3, 2 ch)
Subtitles:
Russian
Menu Video:
PAL 4:3 (720x576) VBR
Menu Subtitles:
Not specified
Menu English Language Unit :
Root Menu

MediaInfo

Общее
Полное имя : J:\Whistle and I'll Come to You_1968\VIDEO_TS\VTS_02_1.VOB
Формат : MPEG-PS
Размер файла : 1024 Мбайт
Продолжительность : 22 м.
Режим общего битрейта : Переменный
Общий поток : 6456 Кбит/сек
Видео
Идентификатор : 224 (0xE0)
Формат : MPEG Video
Версия формата : Version 2
Профиль формата : Main@Main
Параметр BVOP формата : Да
Параметр матрицы формата : По умолчанию
Параметр GOP формата : M=3, N=13
Продолжительность : 22 м.
Вид битрейта : Переменный
Битрейт : 6135 Кбит/сек
Максимальный битрейт : 8000 Кбит/сек
Ширина : 720 пикселей
Высота : 576 пикселей
Соотношение сторон : 4:3
Частота кадров : 25,000 кадров/сек
Стандарт вещания : PAL
Цветовое пространство : YUV
Субдискретизация насыщенности : 4:2:0
Битовая глубина : 8 бит
Тип развёртки : Чересстрочная
Порядок развёртки : Верхнее поле первое
Метод сжатия : С потерями
Бит/(Пиксели*Кадры) : 0.592
Размер потока : 973 Мбайт (95%)
Основные цвета : BT.601 PAL
Характеристики трансфера : BT.470 System B, BT.470 System G
Коэффициенты матрицы : BT.601
Аудио
Идентификатор : 189 (0xBD)-128 (0x80)
Формат : AC-3
Формат/Информация : Audio Coding 3
Расширение режима : CM (complete main)
Параметр Endianness формата : Big
Режим смешивания : DVD-Video
Продолжительность : 22 м.
Вид битрейта : Постоянный
Битрейт : 192 Кбит/сек
Каналы : 2 канала
Расположение каналов : Front: L R
Частота : 48,0 КГц
Битовая глубина : 16 бит
Метод сжатия : С потерями
Размер потока : 30,4 Мбайт (3%)
Текст
Идентификатор : 189 (0xBD)-32 (0x20)
Формат : RLE
Формат/Информация : Run-length encoding
Режим смешивания : DVD-Video
Задержка видео : 6 с. 560 мс.
Меню

Постеры

Скриншоты меню

[teatrix.ru].t3916.torrent 
Торрент: Зарегистрирован [ 2015-10-07 12:13 ] · 2BAC5303E8142A74F88303E09AADDF3F094AE5AA

Скачать .torrent

Скачать

20 KB

Статус: проверено
Скачан: 0 раз
Размер: 3.86 GB
terms.php



Быстрый ответ

Имя:

      
Для отправки сообщений необходимо включить JavaScript
Показать сообщения:    

Текущее время: 04-Дек 06:52

Часовой пояс: UTC + 3


Вы можете начинать темы
Вы можете отвечать на сообщения
Вы не можете редактировать свои сообщения
Вы не можете удалять свои сообщения
Вы не можете голосовать в опросах
Вы не можете прикреплять файлы к сообщениям
Вы можете скачивать файлы