Повешение / Par suffocation / On Suffocation (Дженифер Мальмквист / Jenifer Malmqvist) [2012, Швеция, трагедия, гей-тема, короткий метр, HDTVRip-AVC]


Статистика раздачи [Обновить пиров]
Размер:  110 MB   |    Зарегистрирован:  1 год 1 месяц   |    Скачан:  0 раз

Полного источника не было: Никогда

 
   
 
 
 

[Цитировать]

Повешение
Par suffocation- Страна: Швеция
Жанр: трагедия, гей-тема, короткий метр
Год выпуска: 2012
Продолжительность: 00:07:00
Перевод: Субтитры (ralf124c41+)
Cубтитры: русские
Оригинальная аудиодорожка: нет диалогов
Режиссер: Дженифер Мальмквист / Jenifer MalmqvistВ ролях: Роян Карими / Poyan Karimi, Пешан Рад / Peshang Rad, Али Дауд / Ali Dawoud
Описание: Семь минут без диалогов о казни…
Доп. информация: Arte HD. На территории РФ возрастное ограничение 18+. На экране дополнительно форсированные вшитые французские субтитры.
Награды: номинация на Гран-при жюри за лучший короткометражный фильм Sundance Film Festival 2013; приз за лучший фильм Nordisk Panorama 2013; номинация на лучшую короткометражку Göteborg Film Festival 2013; приз за лучшую короткометражку Guldbagge Awards 2014; Гуманитарная премия 24fps International Short Film Festival 2014.

Качество видео: HDTVRip-AVC
Формат видео: MKV
Видео: AVC (H.264), 720x400 (16:9), 25 fps, ~2000 kbps avg, 0.278 bit/pixel
Аудио: AC3, 2 ch, 48 kHz, ~192.00 kbps avg
Формат субтитров: softsub (SSA/ASS)
Доп. информация о субтитрах: форсированные

Пример субтитров

Dialogue: 0,0:00:21.87,0:00:25.89,Default,,0,0,0,,{\pos(356,285)\b1}ПОВЕШЕНИЕDialogue: 0,0:06:36.86,0:06:38.52,Default,,0,0,0,,{\pos(366,286)\b1}Гомосексуализм\Nпреследуется по законуDialogue: 0,0:06:38.96,0:06:42.48,Default,,0,0,0,,{\b1\pos(362,293)}в 78 странах, в 7 странах за гомосексуализм\Nпредусмотрена смертная казнь.

MediaInfo

Общее
Уникальный идентификатор : 194036511202657238730938625728798747719 (0x91FA129DF8DA6E6F97769167E2FF6C47)
Полное имя : E:\My Torrents 2\[apreder]MINI_MOVIES_09\[apreder]MM_Par_suffocation(2012)HDTVRip.mkv
Формат : Matroska
Версия формата : Version 2
Размер файла : 110 Мбайт
Продолжительность : 7 м. 0 с.
Общий поток : 2196 Кбит/сек
Дата кодирования : UTC 2015-01-18 16:30:54
Программа кодирования : mkvmerge v7.5.0 ('Glass Culture') 64bit built on Jan 4 2015 16:48:44
Библиотека кодирования : libebml v1.3.1 + libmatroska v1.4.2
Видео
Идентификатор : 1
Формат : AVC
Формат/Информация : Advanced Video Codec
Профиль формата : High@L4.1
Параметр CABAC формата : Да
Параметр ReFrames формата : 16 кадров
Идентификатор кодека : V_MPEG4/ISO/AVC
Продолжительность : 7 м. 0 с.
Битрейт : 2000 Кбит/сек
Ширина : 720 пикселей
Высота : 400 пикселей
Соотношение сторон : 16:9
Режим частоты кадров : Постоянный
Частота кадров : 25,000 кадров/сек
Частота кадров в оригинале : 24,000 кадра/сек
Цветовое пространство : YUV
Субдискретизация насыщенности : 4:2:0
Битовая глубина : 8 бит
Тип развёртки : Прогрессивная
Бит/(Пиксели*Кадры) : 0.278
Размер потока : 98,1 Мбайт (89%)
Библиотека кодирования : x264 core 144 r2525 40bb568
Настройки программы : cabac=1 / ref=16 / deblock=1:-1:-1 / analyse=0x3:0x133 / me=umh / subme=10 / psy=1 / psy_rd=1.00:0.15 / mixed_ref=1 / me_range=24 / chroma_me=1 / trellis=2 / 8x8dct=1 / cqm=0 / deadzone=21,11 / fast_pskip=1 / chroma_qp_offset=-3 / threads=6 / lookahead_threads=1 / sliced_threads=0 / nr=0 / decimate=1 / interlaced=0 / bluray_compat=0 / constrained_intra=0 / bframes=8 / b_pyramid=2 / b_adapt=2 / b_bias=0 / direct=3 / weightb=1 / open_gop=0 / weightp=2 / keyint=240 / keyint_min=24 / scenecut=40 / intra_refresh=0 / rc_lookahead=60 / rc=2pass / mbtree=1 / bitrate=2000 / ratetol=1.0 / qcomp=0.60 / qpmin=0 / qpmax=69 / qpstep=4 / cplxblur=20.0 / qblur=0.5 / vbv_maxrate=62500 / vbv_bufsize=78125 / nal_hrd=none / filler=0 / ip_ratio=1.40 / aq=1:1.00
Default : Да
Forced : Нет
Аудио
Идентификатор : 2
Формат : AC-3
Формат/Информация : Audio Coding 3
Расширение режима : CM (complete main)
Параметр Endianness формата : Big
Идентификатор кодека : A_AC3
Продолжительность : 7 м. 0 с.
Вид битрейта : Постоянный
Битрейт : 192 Кбит/сек
Каналы : 2 канала
Расположение каналов : Front: L R
Частота : 48,0 КГц
Битовая глубина : 16 бит
Метод сжатия : С потерями
Размер потока : 9,61 Мбайт (9%)
Default : Да
Forced : Нет
Текст
Идентификатор : 3
Формат : ASS
Идентификатор кодека : S_TEXT/ASS
Идентификатор кодека/Информация : Advanced Sub Station Alpha
Метод сжатия : Без потерь
Язык : Russian
Default : Да
Forced : Нет

Скриншот c названием фильма

Скриншоты

Резервные скриншоты

-[2'063]
[teatrix.ru].t3918.torrent 
Торрент: Зарегистрирован [ 2015-10-07 12:13 ] · 6967A65957DE1583ACCBC3DBCEC5306195629C5D

Скачать .torrent

Скачать

18 KB

Статус: проверено
Скачан: 0 раз
Размер: 110 MB
terms.php



Быстрый ответ

Имя:

      
Для отправки сообщений необходимо включить JavaScript
Показать сообщения:    

Текущее время: 05-Дек 19:34

Часовой пояс: UTC + 3


Вы можете начинать темы
Вы можете отвечать на сообщения
Вы не можете редактировать свои сообщения
Вы не можете удалять свои сообщения
Вы не можете голосовать в опросах
Вы не можете прикреплять файлы к сообщениям
Вы можете скачивать файлы