Моя комната / Mítt Rúm (Хайдрик а Хейгем / Heiðrik á Heygum) [2009, Фарерские острова, короткометражный, фантастика, драма, WEBRip] + Sub Rus


Статистика раздачи [Обновить пиров]
Размер:  113 MB   |    Зарегистрирован:  1 год 2 месяца   |    Скачан:  0 раз

Полного источника не было: Никогда

 
   
 
 
 

[Цитировать]

Моя комната / Mítt Rúm
Страна: Фарерские острова
Жанр: короткометражный, фантастика, драма
Год выпуска: 2009
Продолжительность: 00:22:34
Перевод: субтитры (jorge44)
Cубтитры: русские
Оригинальная аудиодорожка: фарерский
Режиссер: Хайдрик а Хейгем / Heiðrik á Heygum
В ролях: Олува Йоханнесен, Самаль Х. Хансен, Мария Р. а Хейгем, Кристина Х. Якобсен, Хайни Р. а Хейгем, Лиггьяс Ольсен
Описание: Темы одиночества, краха цивилизации, компьютерной зависимости... Мать дарит сыну компьютер, который может дать ему то, в чем он нуждается: любовь и понимание.
Доп. информация: Черно-белая sci-fi короткометражка режиссера и музыканта Хайдрика а Хейгема, получившая две награды в номинациях за лучший фильм: Nordic Youth Film Festival, Ung Film Festival (The Rasmus Award).
Качество видео: WEBRip
Формат видео: MP4
Видео: AVC, 640x360, 25.000 fps, ~598 kbps avg, 0.104 bit/pixel
Аудио: AAC, 44.1 kHz, 2 ch, 96 kbps
Формат субтитров: softsub (SRT)
Доп. информация о субтитрах: вшитые английские субтитры (hardsub)

MediaInfo

General
Complete name: Mitt Rum.mp4
Format: MPEG-4
Format profile: Base Media
Codec ID: isom
File size: 113 MiB
Duration: 22mn 34s
Overall bit rate: 700 Kbps
Encoded date: UTC 2012-09-01 16:15:13
Tagged date: UTC 2012-09-02 16:15:19
Video
ID: 1
Format: AVC
Format/Info: Advanced Video Codec
Format profile: High@L3.1
Format settings, CABAC: Yes
Format settings, ReFrames: 4 frames
Codec ID: avc1
Codec ID/Info: Advanced Video Coding
Duration: 22mn 34s
Bit rate mode: Variable
Bit rate: 598 Kbps
Maximum bit rate: 1 793 Kbps
Width: 640 pixels
Height: 360 pixels
Display aspect ratio: 16:9
Frame rate mode: Constant
Frame rate: 25.000 fps
Resolution: 8 bits
Colorimetry: 4:2:0
Scan type: MBAFF
Bits/(Pixel*Frame): 0.104
Stream size: 96.6 MiB (85%)
Writing library: Vimeo Encoder
Encoded date: UTC 2012-09-01 16:15:13
Tagged date: UTC 2012-09-01 16:15:16
Audio
ID: 2
Format: AAC
Format/Info: Advanced Audio Codec
Format version: Version 4
Format profile: LC
Format settings, SBR: No
Codec ID: 40
Duration: 22mn 34s
Bit rate mode: Variable
Bit rate: 96.0 Kbps
Maximum bit rate: 131 Kbps
Channel(s): 2 channels
Channel positions: Front: L R
Sampling rate: 44.1 KHz
Stream size: 15.8 MiB (14%)
Encoded date: UTC 2012-09-01 16:15:15
Tagged date: UTC 2012-09-01 16:15:16

Скриншот c названием фильма

Скриншоты


[teatrix.ru].t3919.torrent 
Торрент: Зарегистрирован [ 2015-10-07 12:13 ] · 6BD80D56CF1597D35A069792A957B338DF7AF806

Скачать .torrent

Скачать

18 KB

Статус: проверено
Скачан: 0 раз
Размер: 113 MB
terms.php



Быстрый ответ

Имя:

      
Для отправки сообщений необходимо включить JavaScript
Показать сообщения:    

Текущее время: 09-Дек 01:06

Часовой пояс: UTC + 3


Вы можете начинать темы
Вы можете отвечать на сообщения
Вы не можете редактировать свои сообщения
Вы не можете удалять свои сообщения
Вы не можете голосовать в опросах
Вы не можете прикреплять файлы к сообщениям
Вы можете скачивать файлы