Что-то происходит / Something has happened / Någonting har hänt (Рой Андерссон / Roy Andersson) [1987, Швеция, драма, трагикомедия, короткий метр, DVDRip] + Sub Rus + Original Swe


Статистика раздачи [Обновить пиров]
Размер:  320 MB   |    Зарегистрирован:  1 год 2 месяца   |    Скачан:  0 раз

Полного источника не было: Никогда

 
   
 
 
 

[Цитировать]

Что-то происходит / Something has happened / Någonting har hänt
Страна: Швеция
Жанр: драма / трагикомедия
Год выпуска: 1987
Продолжительность: 23:44
Перевод: Субтитры
Cубтитры: русские, английские
Оригинальная аудиодорожка: шведский
Режиссер: Рой Андерссон / Roy Andersson
В ролях: Клас-Гёста Олссон, Энн Тубин, Леннарт Бьерклунд, Сэнди Мэнссон и др.
Описание: В 1986 году шведский минздрав (Socialstyrelsen) поручил Рою Андерссону съёмки фильма о СПИДе и борьбе с ним, каковой фильм планировалось демонстрировать шведским школьникам в просветительных целях. В процессе работы над фильмом Рой Андерссон углубился в самостоятельное изучение предмета, в результате чего пришел к убеждению, что общепринятая версия происхождения СПИДа из африканских джунглей ложна и что на самом деле всему причиной лабораторные эксперименты, проводившиеся в США в 60-70 годах. Руководство шведского минздрава сочло авторскую позицию Андерссона основанной на сомнительных источниках информации и прекратило финансирование проекта в самом разгаре съёмочного процесса. В итоге режиссеру пришлось монтировать фильм из отснятого на тот момент материала, а шведские школьники так ничего и не увидели.
Доп. информация: Рип с ДВД "5 х Roy Andersson", скачанного с KG. Спасибо аплоудеру MrElg. Перевод мой.
Сэмпл: http://multi-up.com/1025291
Качество видео: DVDRip
Формат видео: AVI
Видео: 720x544 (1.32:1), 25 fps, XviD build 50 ~1686 kbps avg, 0.17 bit/pixel
Аудио: 48 kHz, AC3 Dolby Digital, 2/0 (L,R) ch, ~192.00 kbps avg
Формат субтитров: softsub (SRT)

MediaInfo

GeneralComplete name : H:\Something Has Happened\Something Has Happened.aviFormat : AVIFormat/Info : Audio Video InterleaveFile size : 320 MiBDuration : 23mn 44sOverall bit rate : 1 886 KbpsWriting application : VirtualDubMod 1.5.4.1 (build 2178/release)Writing library : VirtualDubMod build 2178/release
VideoID : 0Format : MPEG-4 VisualFormat profile : Advanced Simple@L5Format settings, BVOP : 1Format settings, QPel : NoFormat settings, GMC : No warppointsFormat settings, Matrix : CustomCodec ID : XVIDCodec ID/Hint : XviDDuration : 23mn 44sBit rate : 1 687 KbpsWidth : 720 pixelsHeight : 544 pixelsDisplay aspect ratio : 4:3Frame rate : 25.000 fpsColor space : YUVChroma subsampling : 4:2:0Bit depth : 8 bitsScan type : ProgressiveCompression mode : LossyBits/(Pixel*Frame) : 0.172Stream size : 286 MiB (89%)Writing library : XviD 1.2.1 (UTC 2008-12-04)
AudioID : 1Format : AC-3Format/Info : Audio Coding 3Mode extension : CM (complete main)Format settings, Endianness : BigCodec ID : 2000Duration : 23mn 43sBit rate mode : ConstantBit rate : 192 KbpsChannel(s) : 2 channelsChannel positions : Front: L RSampling rate : 48.0 KHzBit depth : 16 bitsCompression mode : LossyStream size : 32.6 MiB (10%)Alignment : Split accross interleavesInterleave, duration : 96 ms (2.40 video frames)Interleave, preload duration : 96 msLanguage : Svenska

Скриншот c названием фильма

Скриншоты


Фрагмент субтитров

32
00:05:35,720 --> 00:05:40,120
Гомосексуалисты были
первыми, кто заразился СПИДом.
33
00:05:41,720 --> 00:05:45,600
Считалось, что это ''болезнь геев''.
34
00:05:52,040 --> 00:05:57,920
Затем он был обнаружен среди наркоманов,
35
00:05:58,000 --> 00:06:01,400
вводивших наркотики внутривенно.
36
00:06:06,480 --> 00:06:11,040
Пошли разговоры о "группах риска".
37
00:06:13,199 --> 00:06:21,520
В них включали и тех, кто имел половые
сношения и с мужчинами, и с женщинами.
38
00:06:32,040 --> 00:06:36,720
И тех, кто занимался проституцией.
39
00:06:48,120 --> 00:06:54,920
И тех, кто пользовался продуктами
крови по медицинским причинам.
40
00:07:04,920 --> 00:07:10,040
И тех, кому делалось переливание крови.
41
00:07:17,000 --> 00:07:23,000
Гетеросексуальные мужчины и женщины...
42
00:07:23,079 --> 00:07:27,440
...сегодня также представляют группу риска.
43
00:07:31,920 --> 00:07:37,400
СПИД - болезнь, касающаяся каждого.
44
00:07:45,480 --> 00:07:49,280
Это мог быть негр,
45
00:07:49,360 --> 00:07:54,280
который однажды слонялся
там у себя по джунглям.
46
00:07:54,360 --> 00:08:00,240
Вот так... Смотрел по сторонам.
47
00:08:04,360 --> 00:08:08,600
''Я голоден'', - подумал негр.
48
00:08:10,600 --> 00:08:13,320
''Я бы съел чего-нибудь.''
49
00:08:20,199 --> 00:08:22,320
''Вот повезло!''
50
00:08:24,120 --> 00:08:26,160
''Обезьяна!''
51
00:08:27,920 --> 00:08:31,520
И потом он, вероятно,
стал подманивать обезьяну.
52
00:08:31,600 --> 00:08:35,960
Зеленую обезьяну, прошу заметить.
Вот так:
53
00:08:36,039 --> 00:08:39,800
''Сюда-сюда-сюда-сюда!''
54
00:08:39,879 --> 00:08:42,640
Обезьяна подходит всё ближе.
55
00:08:42,720 --> 00:08:46,240
И когда до обезьяны можно
достать рукой,
56
00:08:46,320 --> 00:08:51,840
негр хватает её, быстрый
как молния, и берёт на руки.
57
00:08:51,919 --> 00:08:55,640
Обезьяна пытается вырваться...
58
00:08:55,720 --> 00:09:00,560
...и вонзает острые как бритва зубы
негру в руку.
59
00:09:00,639 --> 00:09:04,880
''Ай-яй-яй-яй!''
60
00:09:12,600 --> 00:09:18,520
Вот так вирус мог передаться людям.
[teatrix.ru].t3920.torrent 
Торрент: Зарегистрирован [ 2015-10-07 12:13 ] · A2375C256655DA18C1A8A584C743DD53C5B20E72

Скачать .torrent

Скачать

13 KB

Статус: проверено
Скачан: 0 раз
Размер: 320 MB
terms.php



Быстрый ответ

Имя:

      
Для отправки сообщений необходимо включить JavaScript
Показать сообщения:    

Текущее время: 11-Дек 05:20

Часовой пояс: UTC + 3


Вы можете начинать темы
Вы можете отвечать на сообщения
Вы не можете редактировать свои сообщения
Вы не можете удалять свои сообщения
Вы не можете голосовать в опросах
Вы не можете прикреплять файлы к сообщениям
Вы можете скачивать файлы