Антология Мари Менкен / Marie Menken: An anthology (Мари Менкен / Marie Menken, Уиллард Маас/Willard Maas) [1943-66, США, короткий метр, экспериментальный, документальный, DVDRip] + Sub Rus + Original Eng


Статистика раздачи [Обновить пиров]
Размер:  1.2 GB   |    Зарегистрирован:  1 год 1 месяц   |    Скачан:  0 раз

Полного источника не было: Никогда

 
   
 
 
 

[Цитировать]

Антология Мари Менкен / Marie Menken: An anthology
Страна: США
Жанр: короткий метр, экспериментальный, документальный
Год выпуска: 1943-66
Продолжительность: указана в техданных для каждого фильма
Перевод: субтитры
Cубтитры: русский
Оригинальная аудиодорожка: английский
Режиссер: Мари Менкен / Marie Menken, Уиллард Маас/Willard Maas
В ролях: Мари Менкен/Marie Menken, Кеннет Энгер/Kenneth Anger, Стэн Брэкидж/Stan Brakhage, Энди Уорхол/Andy Warhol, Альфред Лесли/Alfred Leslie, Уиллард Маас/Willard Maas
Описание: Мари Менкен – художница, значимый представитель американского киноавангарда. В 40-е годы Мари и ее муж, поэт и режиссер Уиллард Маас, основали одно из первых американских объединений независимых режиссеров, Gryphon Group, просуществовавшее до конца 60-х. И Уиллард, и Мари снимали поэтическое кино, но совершенно разного толка: фильмы Уилларда пропитаны поэтикой слова, а работы Мари – поэтикой образа. Ее кино – яркий пример того, как осваивает киноязык художник-абстракционист, исследуя возможности ритма, цвета, света и фактуры. По большей части короткометражки Мари имеют дневниковый характер: она делала поэтические зарисовки окружающей действительности. Многие отмечают, что во время съемки Мари словно танцевала, и это чувствуется и при просмотре ее работ: почти все ее фильмы построены на движении живой камеры, очень насыщенном монтаже и неистовом ритме. Бесконечный круговорот образов завораживает и затягивает зрителя. Творчество Мари Менкен повлияло на других представителей американского киноавангарда: на Йонаса Мекаса, Стэна Брэкиджа, Кеннета Энгера и Энди Уорхола.
Перечень фильмов Мари Менкен и Уилларда Мааса в данной раздаче
1. Визуальные вариации на тему Ногути / Visual Variations on Noguchi (1945)
2. Видение Сада / Glimpse of the Garden (1957)
3. Могильщики из Гуадикса / The Gravediggers from Guadix (1960) (фрагмент)
4. Музыка для глаз в Red мажоре / Eye Music in Red Major (1961) (фрагмент) (с комментарием Стэна Брэкиджа)
5. Арабеска для Кеннета Энгера / Arabesque for Kenneth Anger (1961) (с комментарием Кеннета Энгера)
6. Заметки / Notebook (1963)
7. Go! Go! Go! / Go! Go! Go! (1962-64)
8. Борцы / Wrestlers (Wrestling) (1964) (фрагмент)
9. Энди Уорхол / Andy Warhol (1965)
10. Дуэль с Уорхолом на Болексах / Bolex duel (circa 1965) (с комментарием Кеннета Энгера)
11. Огни / Lights (1964-66)
12. Уиллард Маас География Тела / Willard Maas Geography of the Body (1943) (идея и реализация – Мари Менкен)
13. Уиллард Маас и Бен Мур Живопись Мари Менкен / Willard Maas and Ben Moore, 4 American Artists, Marie Menken (1950)
14. Уиллард Маас Личная жизнь / Willard Maas Midnight Maases rushes (circa 1960) (с комментарием Кеннета Энгера)
Дополнительная информация
Перевод и тайминг – abris.

Сэмплы

Визуальные вариации на тему Ногути
http://multi-up.com/1022563
Видение Сада
http://multi-up.com/1022564
Могильщики из Гуадикса
http://multi-up.com/1022565
Музыка для глаз в Red мажоре
http://multi-up.com/1022566
Арабеска для Кеннета Энгера
http://multi-up.com/1022567
Заметки
http://multi-up.com/1022823
Go! Go! Go!
http://multi-up.com/1022825
Борцы
http://multi-up.com/1022568
Энди Уорхол
http://multi-up.com/1022826
Дуэль с Уорхолом на Болексах
http://multi-up.com/1022569
Огни
http://multi-up.com/1022827
География Тела
http://multi-up.com/1022828
Живопись Мари Менкен
http://multi-up.com/1022570
Личная жизнь
http://multi-up.com/1022571
Качество видео: DVDRip
Формат видео: AVI

Техданные

Визуальные вариации на тему Ногути
Продолжительность: 00:04:03
Видео: XviD MPEG-4 at 3135 kbps, 0.44 bit/pixel, 640x464 (1.38:1) at 23.976 fps
Аудио: MPEG Layer 3 at 128.00 kbps avg, 2 ch, 48 kHz
Видение Сада
Продолжительность: 00:05:05
Видео: XviD MPEG-4 at 2256 kbps, 0.24 bit/pixel, 720x544 (1.32:1) at 23.976 fps
Аудио: MPEG Layer 3 at 192.00 kbps avg, 2 ch, 48 kHz
Могильщики из Гуадикса
Продолжительность: 00:04:12
Видео: XviD MPEG-4 at 1403 kbps, 0.32 bit/pixel, 496x368 (1.35:1) at 24 fps
Аудио: MPEG Layer 3 at 64.00 kbps avg, 2 ch, 48 kHz
Музыка для глаз в Red мажоре
Продолжительность: 00:04:22
Видео: XviD MPEG-4 at 1210 kbps, 0.29 bit/pixel, 470x368 (1.28:1) at 24 fps
Аудио: MPEG Layer 3 at 64.00 kbps avg, 2 ch, 48 kHz
Арабеска для Кеннета Энгера
Продолжительность: 00:04:52
Видео: XviD MPEG-4 at 1246 kbps, 0.28 bit/pixel, 496x368 (1.35:1) at 24 fps
Аудио: MPEG Layer 3 at 64.00 kbps avg, 2 ch, 48 kHz
Заметки
Продолжительность: 00:10:37
Видео: DivX Codec 4.x at 1224 kbps, 0.13 bit/pixel, 640x480 (1.33:1) at 29.970 fps
Аудио: Отсутствует
Go! Go! Go!
Продолжительность: 00:11:31
Видео: DivX Codec 4.x at 2183 kbps, 0.25 bit/pixel, 704x528 (1.33:1) at 23.976 fps
Аудио: Отсутствует
Борцы
Продолжительность: 00:01:41
Видео: XviD MPEG-4 at 1237 kbps, 0.28 bit/pixel, 496x368 (1.35:1) at 24 fps
Аудио: Отсутствует
Энди Уорхол
Продолжительность: 00:17:26
Видео: XviD MPEG-4 at 2096 kbps, 0.28 bit/pixel, 640x480 (1.33:1) at 24 fps
Аудио: MPEG Layer 3 at 64.00 kbps avg, 1 ch, 48 kHz
Дуэль с Уорхолом на Болексах
Продолжительность: 00:02:21
Видео: XviD MPEG-4 at 1482 kbps, 0.34 bit/pixel, 496x368 (1.35:1) at 24 fps
Аудио: MPEG Layer 3 at 64.00 kbps avg, 2 ch, 48 kHz
Огни
Продолжительность: 00:06:05
Видео: XviD build 46 at 2432 kbps, 0.32 bit/pixel, 640x480 (1.33:1) at 25 fps
Аудио: MPEG Layer 3 at 224.00 kbps avg, 2 ch, 44.100 kHz
География Тела
Продолжительность: 00:07:20
Видео: XviD MPEG-4 at 1636 kbps, 0.23 bit/pixel, 640x464 (1.38:1) at 23.976 fps
Аудио: MPEG Layer 3 at 128.00 kbps avg, 2 ch, 48 kHz
Живопись Мари Менкен
Продолжительность: 00:04:23
Видео: XviD MPEG-4 at 1269 kbps, 0.29 bit/pixel, 496x368 (1.35:1) at 24 fps
Аудио: MPEG Layer 3 at 64.00 kbps avg, 2 ch, 48 kHz
Личная жизнь
Продолжительность: 00:02:19
Видео: XviD MPEG-4 at 4399 kbps, 0.23 bit/pixel, 1024x768 (1.33:1) at 24 fps
Аудио: MPEG Layer 3 at 64.00 kbps avg, 2 ch, 44.100 kHz

Субтитры

Формат субтитров: softsub (SRT)
Фрагменты субтитров:
Могильщики из Гуадикса
1
00:00:01,292 --> 00:00:04,700
(В Испании) мы выбрались с ней за город.
2
00:00:05,000 --> 00:00:07,497
Каким-то образом Мари узнала,
3
00:00:07,805 --> 00:00:10,205
что в одной деревушке жили монахи,
4
00:00:10,503 --> 00:00:14,108
которые копали могилы.
5
00:00:14,603 --> 00:00:18,378
Это была их основная
деятельность, их призвание.
6
00:00:18,625 --> 00:00:22,000
Они служили людям,
копая для них могилы.
7
00:00:22,303 --> 00:00:24,078
Мари исповедовала католичество.
8
00:00:24,250 --> 00:00:26,705
Наверное, поэтому она и знала о них.
9
00:00:27,000 --> 00:00:27,885
Они жили
10
00:00:28,250 --> 00:00:30,645
в погребах, которые
они сами выкапывали.
11
00:00:30,917 --> 00:00:33,192
Они носили коричневые робы
12
00:00:33,507 --> 00:00:35,192
цвета земли.
13
00:00:35,458 --> 00:00:39,183
В своих погребах они
почти вросли в землю.
14
00:00:41,958 --> 00:00:45,683
В каждом погребе на стене
висело распятие
15
00:00:46,458 --> 00:00:48,103
и плеть.
16
00:00:48,408 --> 00:00:52,300
Скорее всего, если они
думали о чем-то греховном,
17
00:00:52,633 --> 00:00:55,058
они должны были истязать себя.
18
00:00:55,325 --> 00:00:59,325
Я не стал спрашивать,
как часто они этим занимались.
19
00:00:59,625 --> 00:01:01,000
Они жили в строгой аскезе.
Музыка для глаз в Red мажоре
21
00:02:19,667 --> 00:02:21,002
Вот тогда и рождается искусство.
22
00:02:21,367 --> 00:02:24,402
Ведь у каждого из нас
свой собственный ритм.
23
00:02:32,792 --> 00:02:35,907
Камера Болекс - отличный учитель.
24
00:02:36,208 --> 00:02:40,403
Мари научилась снимать кино,
25
00:02:40,708 --> 00:02:42,993
предоставляя своей камере
возможность говорить.
26
00:02:43,542 --> 00:02:46,277
В своем кино она была первопроходцем
27
00:02:47,583 --> 00:02:49,203
как Колумб.
28
00:02:49,500 --> 00:02:54,795
Она исследовала
неизведанные земли.
29
00:02:55,058 --> 00:02:59,183
Она снимала,
30
00:03:00,875 --> 00:03:02,710
нажимая на эту кнопку,
31
00:03:04,000 --> 00:03:05,295
или на эту,
32
00:03:07,042 --> 00:03:09,762
чтобы поймать бесконечную
череду моментов настоящего,
33
00:03:10,042 --> 00:03:11,817
их бесконечный бег,
"Go-go-go".
34
00:03:13,708 --> 00:03:19,403
Когда Мари снимала фрагменты
реальности в замедленном темпе,
35
00:03:19,750 --> 00:03:26,000
а во время проекции показывала
их плотно сжатыми друг с другом,
36
00:03:27,167 --> 00:03:34,302
она наилучшим образом реализовывала
потенциал медиа, своей камеры.
37
00:03:34,625 --> 00:03:40,630
Если использовать
кинокамеру таким образом,
38
00:03:40,925 --> 00:03:44,990
она может помочь своему
обладателю открыть новый мир.
39
00:03:45,250 --> 00:03:47,875
Тут камера издает
точно такое же звучание.
40
00:03:49,709 --> 00:03:53,749
Но теперь переключим
ее в режим проекции,
41
00:03:55,034 --> 00:03:59,000
ведь проектор - это не что иное,
как камера, работающая наоборот.
Арабеска для Кеннета Энгера
2
00:00:03,292 --> 00:00:06,607
У нее было танцующее видение,
она подмечала все детали.
3
00:00:06,902 --> 00:00:10,547
Она словно осуществляла
монтаж во время съемки.
4
00:00:10,708 --> 00:00:12,513
Мари представляла,
5
00:00:12,842 --> 00:00:16,152
что с чем сопоставить
до мельчайших подробностей.
6
00:00:16,442 --> 00:00:17,952
Она словно собирала паззл.
7
00:00:18,242 --> 00:00:19,952
Меня поражало,
8
00:00:20,292 --> 00:00:22,207
как ловко и быстро она снимает.
9
00:00:22,417 --> 00:00:23,952
Мари двигалась в своеобразном танце
10
00:00:24,257 --> 00:00:27,052
и у нее было особое чувство
движения и ритма
11
00:00:27,375 --> 00:00:28,805
как у танцора.
12
00:03:58,125 --> 00:04:00,820
Я помню ее картины.
13
00:04:01,084 --> 00:04:04,899
Эти закрученные абстракции,
14
00:04:05,292 --> 00:04:09,900
в которые она добавляла дробленый
пластик, чтобы он отражал лучи света.
15
00:04:10,209 --> 00:04:13,689
Так что я думаю,
что свет увлекал ее всегда.
16
00:04:29,834 --> 00:04:33,109
В ее фильмах отдельные кадры
17
00:04:33,409 --> 00:04:37,009
складываются в яркие
калейдоскопические узоры.
18
00:04:37,375 --> 00:04:41,000
Поэтому значение имеет
не каждый кадр в отдельности,
19
00:04:41,284 --> 00:04:42,424
а сотни кадров.
20
00:04:42,725 --> 00:04:45,005
Если сопоставить их вместе,
21
00:04:45,309 --> 00:04:46,904
они производят
головокружительный эффект.
22
00:04:47,109 --> 00:04:51,344
Это настоящее извержение поэзии.
Дуэль с Уорхолом на Болексах
1
00:00:15,750 --> 00:00:18,345
Посмотрите, как они танцуют.
Это настоящая дуэль.
2
00:00:18,750 --> 00:00:21,145
Дуэль на Болексах.
3
00:01:24,167 --> 00:01:28,387
Год назад он и снимать-то не умел.
4
00:01:30,000 --> 00:01:31,900
Но Мари его научила.
5
00:01:36,333 --> 00:01:37,673
Невероятно.
6
00:02:08,750 --> 00:02:10,870
Этот фильм
7
00:02:11,500 --> 00:02:14,480
сопротивляется времени.
8
00:02:15,542 --> 00:02:17,602
Его все еще можно смотреть
9
00:02:18,417 --> 00:02:21,216
даже в этом состоянии.
Живопись Мари Менкен
7
00:02:49,083 --> 00:02:51,503
Это "Трапеция для ангелов"
8
00:02:51,917 --> 00:02:54,712
Многие ниточки порвались.
9
00:02:55,042 --> 00:02:56,702
Видите?
10
00:03:02,750 --> 00:03:04,945
В то время
11
00:03:05,300 --> 00:03:07,995
на абстрактное искусство
12
00:03:08,333 --> 00:03:10,528
никто не обращал внимания.
13
00:03:11,042 --> 00:03:13,700
Оно считалось очень странным
видом деятельности,
14
00:03:14,042 --> 00:03:17,907
к которому обращались только те,
15
00:03:18,208 --> 00:03:21,203
кто был недоразвитым и неграмотным
16
00:03:21,500 --> 00:03:23,195
и не умел рисовать.
17
00:03:23,542 --> 00:03:27,007
За творчеством художников
никто не следил
18
00:03:27,292 --> 00:03:29,487
кроме самих художников.
19
00:03:30,209 --> 00:03:32,404
В 1951-ом году
20
00:03:32,625 --> 00:03:39,070
я организовал выставку Мари Менкен
в галерее "Tibor de Nagy".
21
00:03:39,459 --> 00:03:44,512
Это "Tibor de Nagy",
там были такие светильники
22
00:03:44,800 --> 00:03:49,655
со свисающими проводами,
23
00:03:49,959 --> 00:03:52,654
украшающими потолок.
24
00:03:53,000 --> 00:03:55,870
Видите, как здесь тесно.
25
00:03:56,250 --> 00:04:01,320
Тут можно увидеть, какого
размера были ее картины.
26
00:04:02,209 --> 00:04:06,714
У них была неровная поверхность,
27
00:04:07,007 --> 00:04:11,109
они были словно покрыты глазурью.
Личная жизнь
1
00:00:00,042 --> 00:00:04,367
В суть их взаимоотношений
2
00:00:04,667 --> 00:00:09,272
я вник, когда бывал у них по выходным.
3
00:00:09,542 --> 00:00:12,547
Один из вечеров у Уилларда и Мари
4
00:00:12,842 --> 00:00:17,547
вдохновил Олби написать пьесу
"Кто боится Вирджинии Вульф".
5
00:00:17,917 --> 00:00:21,552
Между ними была
6
00:00:22,542 --> 00:00:25,867
странная взаимозавимость,
7
00:00:26,250 --> 00:00:32,020
которая выражалась
8
00:00:32,458 --> 00:00:35,393
в пьянках и скандалах.
9
00:00:35,703 --> 00:00:38,968
Эдвард Олби подметил это
10
00:00:40,458 --> 00:00:42,653
и написал замечательную пьесу.
11
00:00:43,083 --> 00:00:44,803
В конце каждой недели
12
00:00:45,125 --> 00:00:48,790
с вечера пятницы
по утро понедельника
13
00:00:49,083 --> 00:00:50,833
они пили.
14
00:00:51,375 --> 00:00:58,010
Они не просыхали
до утра понедельника.
15
00:00:58,342 --> 00:01:00,077
И так - каждую неделю.
16
00:01:00,475 --> 00:01:03,550
Уму непостижимо.
Не знаю, когда они спали.
17
00:01:39,750 --> 00:01:45,305
Я часто выступал судьей
в их бесконечных спорах.
18
00:01:45,600 --> 00:01:47,205
Я немного беспокоился за Мари,
19
00:01:47,500 --> 00:01:53,802
но Уиллард никогда не грозился
ударить ее или бросить в нее чем-нибудь.
20
00:01:54,142 --> 00:01:57,462
Это она иногда запускала в него
тем, что попадалось под руку.

MediaInfo

Визуальные вариации на тему Ногути
Формат : AVI
Формат/Информация : Audio Video Interleave
Размер файла : 95,0 Мбайт
Продолжительность : 4 м. 3 с.
Общий поток : 3273 Кбит/сек
Программа кодирования : FairUse Wizard - http://fairusewizard.com
Библиотека кодирования : The best and REALLY easy backup tool
Видео
Идентификатор : 0
Формат : MPEG-4 Visual
Профиль формата : Advanced Simple@L5
Параметр BVOP формата : 1
Параметр QPel формата : Нет
Параметр GMC формата : Без точки перехода
Параметр матрицы формата : Default (MPEG)
Режим смешивания : Сжатый битовый поток
Идентификатор кодека : XVID
Идентификатор кодека/Подсказка : XviD
Продолжительность : 4 м. 3 с.
Битрейт : 3136 Кбит/сек
Ширина : 640 пикс.
Высота : 464 пикс.
Соотношение сторон : 1,379
Частота кадров : 23,976 кадр/сек
Цветовое пространство : YUV
Подвыборка цветности : 4:2:0
Битовая глубина : 8 бит
Тип развёртки : Прогрессивная
Метод сжатия : С потерями
Бит/(Пиксели*Кадры) : 0.440
Размер потока : 91,0 Мбайт (96%)
Библиотека кодирования : XviD 1.2.0.dev47 (UTC 2006-11-01)
Аудио
Идентификатор : 1
Формат : MPEG Audio
Версия формата : Version 1
Профиль формата : Layer 3
Режим : Joint stereo
Расширение режима : MS Stereo
Идентификатор кодека : 55
Идентификатор кодека/Подсказка : MP3
Продолжительность : 4 м. 3 с.
Вид битрейта : Постоянный
Битрейт : 128 Кбит/сек
Канал(ы) : 2 канала(ов)
Частота : 48,0 КГц
Метод сжатия : С потерями
Размер потока : 3,71 Мбайт (4%)
Выравнивание : Соединение по промежуткам
Продолжительность промежутка : 42 мс. (1,00 видеокадр)
Время предзагрузки промежутка : 504 ms
Библиотека кодирования : LAME3.97b
Настройки программы : -m j -V 4 -q 2 -lowpass 17 -b 128
Видение Сада
Формат : AVI
Формат/Информация : Audio Video Interleave
Размер файла : 89,5 Мбайт
Продолжительность : 5 м. 5 с.
Общий поток : 2456 Кбит/сек
Программа кодирования : VirtualDubMod 1.5.4.1 (build 2178/release)
Библиотека кодирования : VirtualDubMod build 2178/release
Видео
Идентификатор : 0
Формат : MPEG-4 Visual
Профиль формата : Advanced Simple@L5
Параметр BVOP формата : 1
Параметр QPel формата : Нет
Параметр GMC формата : Без точки перехода
Параметр матрицы формата : Default (H.263)
Режим смешивания : Сжатый битовый поток
Идентификатор кодека : XVID
Идентификатор кодека/Подсказка : XviD
Продолжительность : 5 м. 5 с.
Битрейт : 2257 Кбит/сек
Ширина : 720 пикс.
Высота : 544 пикс.
Соотношение сторон : 4:3
Частота кадров : 23,976 кадр/сек
Цветовое пространство : YUV
Подвыборка цветности : 4:2:0
Битовая глубина : 8 бит
Тип развёртки : Прогрессивная
Метод сжатия : С потерями
Бит/(Пиксели*Кадры) : 0.240
Размер потока : 82,3 Мбайт (92%)
Библиотека кодирования : XviD 1.1.0 (UTC 2005-11-22)
Аудио
Идентификатор : 1
Формат : MPEG Audio
Версия формата : Version 1
Профиль формата : Layer 3
Режим : Joint stereo
Расширение режима : MS Stereo
Идентификатор кодека : 55
Идентификатор кодека/Подсказка : MP3
Продолжительность : 5 м. 5 с.
Вид битрейта : Постоянный
Битрейт : 192 Кбит/сек
Канал(ы) : 2 канала(ов)
Частота : 48,0 КГц
Метод сжатия : С потерями
Задержка видео : 48 мс.
Размер потока : 6,99 Мбайт (8%)
Выравнивание : Соединение по промежуткам
Продолжительность промежутка : 84 мс. (2,00 видеокадров)
Время предзагрузки промежутка : 504 ms
Библиотека кодирования : LAME3.97b
Настройки программы : -m j -V 4 -q 2 -lowpass 18.6 -b 192
Могильщики из Гуадикса
Формат : AVI
Формат/Информация : Audio Video Interleave
Размер файла : 44,6 Мбайт
Продолжительность : 4 м. 12 с.
Общий поток : 1481 Кбит/сек
Программа кодирования : Lavf52.39.1
Библиотека кодирования : VirtualDub build 35491/release
Видео
Идентификатор : 0
Формат : xvid
Идентификатор кодека : xvid
Продолжительность : 4 м. 12 с.
Битрейт : 1404 Кбит/сек
Ширина : 496 пикс.
Высота : 368 пикс.
Соотношение сторон : 4:3
Частота кадров : 24,000 кадр/сек
Бит/(Пиксели*Кадры) : 0.321
Размер потока : 42,3 Мбайт (95%)
Аудио
Идентификатор : 1
Формат : MPEG Audio
Версия формата : Version 1
Профиль формата : Layer 3
Режим : Joint stereo
Расширение режима : MS Stereo
Идентификатор кодека : 55
Идентификатор кодека/Подсказка : MP3
Продолжительность : 4 м. 12 с.
Вид битрейта : Постоянный
Битрейт : 64,0 Кбит/сек
Канал(ы) : 2 канала(ов)
Частота : 48,0 КГц
Метод сжатия : С потерями
Размер потока : 1,93 Мбайт (4%)
Выравнивание : Соединение по промежуткам
Продолжительность промежутка : 24 мс. (0,58 видеокадр)
Время предзагрузки промежутка : 504 ms
Музыка для глаз в Red мажоре
Формат : AVI
Формат/Информация : Audio Video Interleave
Размер файла : 40,3 Мбайт
Продолжительность : 4 м. 22 с.
Общий поток : 1288 Кбит/сек
Программа кодирования : Lavf52.39.1
Видео
Идентификатор : 0
Формат : xvid
Идентификатор кодека : xvid
Продолжительность : 4 м. 22 с.
Битрейт : 1211 Кбит/сек
Ширина : 470 пикс.
Высота : 368 пикс.
Соотношение сторон : 1,277
Частота кадров : 24,000 кадр/сек
Бит/(Пиксели*Кадры) : 0.292
Размер потока : 37,9 Мбайт (94%)
Аудио
Идентификатор : 1
Формат : MPEG Audio
Версия формата : Version 1
Профиль формата : Layer 3
Режим : Joint stereo
Расширение режима : MS Stereo
Идентификатор кодека : 55
Идентификатор кодека/Подсказка : MP3
Продолжительность : 4 м. 22 с.
Вид битрейта : Постоянный
Битрейт : 64,0 Кбит/сек
Канал(ы) : 2 канала(ов)
Частота : 48,0 КГц
Метод сжатия : С потерями
Размер потока : 2,00 Мбайт (5%)
Выравнивание : Соединение по промежуткам
Продолжительность промежутка : 24 мс. (0,58 видеокадр)
Арабеска для Кеннета Энгера
Формат : AVI
Формат/Информация : Audio Video Interleave
Размер файла : 46,1 Мбайт
Продолжительность : 4 м. 52 с.
Общий поток : 1324 Кбит/сек
Программа кодирования : Lavf52.39.1
Библиотека кодирования : VirtualDub build 35491/release
Видео
Идентификатор : 0
Формат : xvid
Идентификатор кодека : xvid
Продолжительность : 4 м. 52 с.
Битрейт : 1247 Кбит/сек
Ширина : 496 пикс.
Высота : 368 пикс.
Соотношение сторон : 4:3
Частота кадров : 24,000 кадр/сек
Бит/(Пиксели*Кадры) : 0.285
Размер потока : 43,4 Мбайт (94%)
Аудио
Идентификатор : 1
Формат : MPEG Audio
Версия формата : Version 1
Профиль формата : Layer 3
Режим : Joint stereo
Расширение режима : MS Stereo
Идентификатор кодека : 55
Идентификатор кодека/Подсказка : MP3
Продолжительность : 4 м. 52 с.
Вид битрейта : Постоянный
Битрейт : 64,0 Кбит/сек
Канал(ы) : 2 канала(ов)
Частота : 48,0 КГц
Метод сжатия : С потерями
Размер потока : 2,23 Мбайт (5%)
Выравнивание : Соединение по промежуткам
Продолжительность промежутка : 24 мс. (0,58 видеокадр)
Время предзагрузки промежутка : 504 ms
Заметки
Формат : AVI
Формат/Информация : Audio Video Interleave
Размер файла : 93,4 Мбайт
Продолжительность : 10 м.
Общий поток : 1230 Кбит/сек
Библиотека кодирования : VirtualDub build 27021/release
Видео
Идентификатор : 0
Формат : MPEG-4 Visual
Параметр BVOP формата : 1
Параметр QPel формата : Нет
Параметр GMC формата : Без точки перехода
Параметр матрицы формата : Default (H.263)
Идентификатор кодека : DX50
Идентификатор кодека/Подсказка : DivX 5
Продолжительность : 10 м.
Битрейт : 1224 Кбит/сек
Ширина : 640 пикс.
Высота : 480 пикс.
Соотношение сторон : 4:3
Частота кадров : 29,970 кадр/сек
Цветовое пространство : YUV
Подвыборка цветности : 4:2:0
Битовая глубина : 8 бит
Тип развёртки : Прогрессивная
Метод сжатия : С потерями
Бит/(Пиксели*Кадры) : 0.133
Размер потока : 92,9 Мбайт (100%)
Библиотека кодирования : DivX 2310n
Go! Go! Go!
Формат : AVI
Формат/Информация : Audio Video Interleave
Профиль формата : OpenDML
Настройки формата : rec
Размер файла : 180 Мбайт
Продолжительность : 11 м.
Общий поток : 2190 Кбит/сек
Программа кодирования : AVI-Mux GUI 1.17.8, Aug 30 2008 12:36:58
Видео
Идентификатор : 0
Формат : MPEG-4 Visual
Профиль формата : Advanced Simple@L5
Параметр BVOP формата : 1
Параметр QPel формата : Нет
Параметр GMC формата : Без точки перехода
Параметр матрицы формата : Default (MPEG)
Идентификатор кодека : XVID
Идентификатор кодека/Подсказка : XviD
Продолжительность : 11 м.
Битрейт : 2186 Кбит/сек
Ширина : 704 пикс.
Высота : 528 пикс.
Соотношение сторон : 4:3
Частота кадров : 23,976 кадр/сек
Цветовое пространство : YUV
Подвыборка цветности : 4:2:0
Битовая глубина : 8 бит
Тип развёртки : Прогрессивная
Метод сжатия : С потерями
Бит/(Пиксели*Кадры) : 0.245
Размер потока : 180 Мбайт (100%)
Библиотека кодирования : XviD 1.2.1 (UTC 2008-12-04)
Борцы
Формат : AVI
Формат/Информация : Audio Video Interleave
Размер файла : 15,0 Мбайт
Продолжительность : 1 м. 41 с.
Общий поток : 1242 Кбит/сек
Программа кодирования : Lavf52.39.1
Библиотека кодирования : VirtualDub build 35491/release
Видео
Идентификатор : 0
Формат : xvid
Идентификатор кодека : xvid
Продолжительность : 1 м. 41 с.
Битрейт : 1237 Кбит/сек
Ширина : 496 пикс.
Высота : 368 пикс.
Соотношение сторон : 4:3
Частота кадров : 24,000 кадр/сек
Бит/(Пиксели*Кадры) : 0.282
Размер потока : 14,9 Мбайт (100%)
Энди Уорхол
Формат : AVI
Формат/Информация : Audio Video Interleave
Размер файла : 271 Мбайт
Продолжительность : 17 м.
Общий поток : 2173 Кбит/сек
Программа кодирования : Lavf52.39.1
Видео
Идентификатор : 0
Формат : xvid
Идентификатор кодека : xvid
Продолжительность : 17 м.
Битрейт : 2097 Кбит/сек
Ширина : 640 пикс.
Высота : 480 пикс.
Соотношение сторон : 4:3
Частота кадров : 24,000 кадр/сек
Бит/(Пиксели*Кадры) : 0.284
Размер потока : 262 Мбайт (96%)
Аудио
Идентификатор : 1
Формат : MPEG Audio
Версия формата : Version 1
Профиль формата : Layer 3
Идентификатор кодека : 55
Идентификатор кодека/Подсказка : MP3
Продолжительность : 17 м.
Вид битрейта : Постоянный
Битрейт : 64,0 Кбит/сек
Канал(ы) : 1 канал
Частота : 48,0 КГц
Метод сжатия : С потерями
Размер потока : 7,99 Мбайт (3%)
Выравнивание : Соединение по промежуткам
Продолжительность промежутка : 24 мс. (0,58 видеокадр)
Время предзагрузки промежутка : 24 ms
Дуэль с Уорхолом на Болексах
Формат : AVI
Формат/Информация : Audio Video Interleave
Размер файла : 26,3 Мбайт
Продолжительность : 2 м. 21 с.
Общий поток : 1561 Кбит/сек
Программа кодирования : Lavf52.39.1
Библиотека кодирования : VirtualDub build 35491/release
Видео
Идентификатор : 0
Формат : xvid
Идентификатор кодека : xvid
Продолжительность : 2 м. 21 с.
Битрейт : 1484 Кбит/сек
Ширина : 496 пикс.
Высота : 368 пикс.
Соотношение сторон : 4:3
Частота кадров : 24,000 кадр/сек
Бит/(Пиксели*Кадры) : 0.339
Размер потока : 25,0 Мбайт (95%)
Аудио
Идентификатор : 1
Формат : MPEG Audio
Версия формата : Version 1
Профиль формата : Layer 3
Режим : Joint stereo
Расширение режима : MS Stereo
Идентификатор кодека : 55
Идентификатор кодека/Подсказка : MP3
Продолжительность : 2 м. 21 с.
Вид битрейта : Постоянный
Битрейт : 64,0 Кбит/сек
Канал(ы) : 2 канала(ов)
Частота : 48,0 КГц
Метод сжатия : С потерями
Размер потока : 1,08 Мбайт (4%)
Выравнивание : Соединение по промежуткам
Продолжительность промежутка : 24 мс. (0,58 видеокадр)
Время предзагрузки промежутка : 504 ms
Огни
Формат : AVI
Формат/Информация : Audio Video Interleave
Размер файла : 116 Мбайт
Продолжительность : 6 м. 5 с.
Общий поток : 2669 Кбит/сек
Библиотека кодирования : MPlayer
Видео
Идентификатор : 0
Формат : MPEG-4 Visual
Профиль формата : Advanced Simple@L5
Параметр BVOP формата : 2
Параметр QPel формата : Нет
Параметр GMC формата : Без точки перехода
Параметр матрицы формата : Default (H.263)
Идентификатор кодека : XVID
Идентификатор кодека/Подсказка : XviD
Продолжительность : 6 м. 5 с.
Битрейт : 2432 Кбит/сек
Ширина : 640 пикс.
Высота : 480 пикс.
Соотношение сторон : 4:3
Частота кадров : 25,000 кадр/сек
Цветовое пространство : YUV
Подвыборка цветности : 4:2:0
Битовая глубина : 8 бит
Тип развёртки : Прогрессивная
Метод сжатия : С потерями
Бит/(Пиксели*Кадры) : 0.317
Размер потока : 106 Мбайт (91%)
Библиотека кодирования : XviD 1.1.2 (UTC 2006-11-01)
Аудио
Идентификатор : 1
Формат : MPEG Audio
Версия формата : Version 1
Профиль формата : Layer 3
Режим : Joint stereo
Идентификатор кодека : 55
Идентификатор кодека/Подсказка : MP3
Продолжительность : 6 м. 5 с.
Вид битрейта : Постоянный
Битрейт : 224 Кбит/сек
Канал(ы) : 2 канала(ов)
Частота : 44,1 КГц
Метод сжатия : С потерями
Задержка видео : 40 мс.
Размер потока : 9,76 Мбайт (8%)
Выравнивание : Соединение по промежуткам
Продолжительность промежутка : 26 мс. (0,65 видеокадр)
Время предзагрузки промежутка : 522 ms
Библиотека кодирования : LAME3.97
География Тела
Формат : AVI
Формат/Информация : Audio Video Interleave
Размер файла : 93,2 Мбайт
Продолжительность : 7 м. 20 с.
Общий поток : 1774 Кбит/сек
Программа кодирования : FairUse Wizard - http://fairusewizard.com
Библиотека кодирования : The best and REALLY easy backup tool
Видео
Идентификатор : 0
Формат : MPEG-4 Visual
Профиль формата : Advanced Simple@L5
Параметр BVOP формата : 1
Параметр QPel формата : Нет
Параметр GMC формата : Без точки перехода
Параметр матрицы формата : Default (MPEG)
Режим смешивания : Сжатый битовый поток
Идентификатор кодека : XVID
Идентификатор кодека/Подсказка : XviD
Продолжительность : 7 м. 20 с.
Битрейт : 1637 Кбит/сек
Ширина : 640 пикс.
Высота : 464 пикс.
Соотношение сторон : 1,379
Частота кадров : 23,976 кадр/сек
Цветовое пространство : YUV
Подвыборка цветности : 4:2:0
Битовая глубина : 8 бит
Тип развёртки : Прогрессивная
Метод сжатия : С потерями
Бит/(Пиксели*Кадры) : 0.230
Размер потока : 86,0 Мбайт (92%)
Библиотека кодирования : XviD 1.2.0.dev47 (UTC 2006-11-01)
Аудио
Идентификатор : 1
Формат : MPEG Audio
Версия формата : Version 1
Профиль формата : Layer 3
Режим : Joint stereo
Расширение режима : MS Stereo
Идентификатор кодека : 55
Идентификатор кодека/Подсказка : MP3
Продолжительность : 7 м. 20 с.
Вид битрейта : Постоянный
Битрейт : 128 Кбит/сек
Канал(ы) : 2 канала(ов)
Частота : 48,0 КГц
Метод сжатия : С потерями
Размер потока : 6,72 Мбайт (7%)
Выравнивание : Соединение по промежуткам
Продолжительность промежутка : 42 мс. (1,00 видеокадр)
Время предзагрузки промежутка : 504 ms
Библиотека кодирования : LAME3.97b
Настройки программы : -m j -V 4 -q 2 -lowpass 17 -b 128
Живопись Мари Менкен
Формат : AVI
Формат/Информация : Audio Video Interleave
Размер файла : 42,4 Мбайт
Продолжительность : 4 м. 23 с.
Общий поток : 1347 Кбит/сек
Программа кодирования : Lavf52.39.1
Библиотека кодирования : VirtualDub build 35491/release
Видео
Идентификатор : 0
Формат : xvid
Идентификатор кодека : xvid
Продолжительность : 4 м. 23 с.
Битрейт : 1270 Кбит/сек
Ширина : 496 пикс.
Высота : 368 пикс.
Соотношение сторон : 4:3
Частота кадров : 24,000 кадр/сек
Бит/(Пиксели*Кадры) : 0.290
Размер потока : 39,9 Мбайт (94%)
Аудио
Идентификатор : 1
Формат : MPEG Audio
Версия формата : Version 1
Профиль формата : Layer 3
Режим : Joint stereo
Расширение режима : MS Stereo
Идентификатор кодека : 55
Идентификатор кодека/Подсказка : MP3
Продолжительность : 4 м. 23 с.
Вид битрейта : Постоянный
Битрейт : 64,0 Кбит/сек
Канал(ы) : 2 канала(ов)
Частота : 48,0 КГц
Метод сжатия : С потерями
Размер потока : 2,01 Мбайт (5%)
Выравнивание : Соединение по промежуткам
Продолжительность промежутка : 24 мс. (0,58 видеокадр)
Время предзагрузки промежутка : 504 ms
Личная жизнь
Формат : AVI
Формат/Информация : Audio Video Interleave
Размер файла : 74,2 Мбайт
Продолжительность : 2 м. 19 с.
Общий поток : 4476 Кбит/сек
Программа кодирования : Lavf52.39.1
Видео
Идентификатор : 0
Формат : xvid
Идентификатор кодека : xvid
Продолжительность : 2 м. 19 с.
Битрейт : 4400 Кбит/сек
Ширина : 1024 пикс.
Высота : 768 пикс.
Соотношение сторон : 4:3
Частота кадров : 24,000 кадр/сек
Бит/(Пиксели*Кадры) : 0.233
Размер потока : 72,9 Мбайт (98%)
Аудио
Идентификатор : 1
Формат : MPEG Audio
Версия формата : Version 1
Профиль формата : Layer 3
Режим : Joint stereo
Расширение режима : MS Stereo
Идентификатор кодека : 55
Идентификатор кодека/Подсказка : MP3
Продолжительность : 2 м. 19 с.
Вид битрейта : Постоянный
Битрейт : 64,0 Кбит/сек
Канал(ы) : 2 канала(ов)
Частота : 44,1 КГц
Метод сжатия : С потерями
Размер потока : 1,06 Мбайт (1%)
Выравнивание : Соединение по промежуткам
Продолжительность промежутка : 26 мс. (0,63 видеокадр)

Скриншоты c названиями фильмов

Визуальные вариации на тему Ногути

Видение Сада

Могильщики из Гуадикса
-
Музыка для глаз в Red мажоре

Арабеска для Кеннета Энгера

Заметки

Go! Go! Go!

Борцы

Энди Уорхол

Дуэль с Уорхолом на Болексах
-
Огни

География Тела

Живопись Мари Менкен

Личная жизнь

Скриншоты

Визуальные вариации на тему Ногути



Видение Сада



Могильщики из Гуадикса



Музыка для глаз в Red мажоре



Арабеска для Кеннета Энгера



Заметки



Go! Go! Go!



Борцы



Энди Уорхол



Дуэль с Уорхолом на Болексах



Огни



География Тела



Живопись Мари Менкен



Личная жизнь


[teatrix.ru].t3921.torrent 
Торрент: Зарегистрирован [ 2015-10-07 12:13 ] · 635E957A9EB767B3170589C68415E6B4494AA65A

Скачать .torrent

Скачать

26 KB

Статус: проверено
Скачан: 0 раз
Размер: 1.2 GB
terms.php



Быстрый ответ

Имя:

      
Для отправки сообщений необходимо включить JavaScript
Показать сообщения:    

Текущее время: 06-Дек 15:13

Часовой пояс: UTC + 3


Вы можете начинать темы
Вы можете отвечать на сообщения
Вы не можете редактировать свои сообщения
Вы не можете удалять свои сообщения
Вы не можете голосовать в опросах
Вы не можете прикреплять файлы к сообщениям
Вы можете скачивать файлы