Путешествие к Морю / Podróż Nad Morze (Райзард Риджевски / Ryszard Rydzewski) [1983, Польша, Драма, Короткометражный фильм, TVRip] VO + Sub Rus + Original Pol


Статистика раздачи [Обновить пиров]
Размер:  303 MB   |    Зарегистрирован:  1 год 1 месяц   |    Скачан:  0 раз

Полного источника не было: Никогда

 
   
 
 
 

[Цитировать]

Путешествие к Морю / Podróż Nad Morze
Страна: Польша
Жанр: Драма, Короткометражный фильм
Год выпуска: 1983
Продолжительность: 00:46:30
Перевод: Одноголосый закадровый
Cубтитры: русские
Оригинальная аудиодорожка: польский
Режиссер: Райзард Риджевски / Ryszard Rydzewski
В ролях: Андзей Бельский, Ежи Схейбаль, Тереза Липовска, Фердинанд Матысик...
Описание: Главный герой - четырнадцатилетний мальчик по имени Ромек, когда его мать умирает, становится сиротой. После ее смерти мальчик пытается вести нормальную жизнь. Он узнает, что его отец, Джон Галик является известным художником, и живет в Кракове. Мальчик решает найти его...
Сэмпл: http://multi-up.com/1023078
Качество видео: TVRip
Формат видео: AVI
Видео: MPEG-4 Visual at 671 Кбит/сек : 640 x 464 (1.379) at 25.000 fps
Аудио 1: MPEG Audio at 112 Кбит/сек: 2 канала, 44,1 КГц(Русский)
Аудио 2: MPEG Audio at 112 Кбит/сек: 2 канала, 44,1 КГц(Польский)
Формат субтитров: softsub (SRT)
Доп. информация о субтитрах: Русские внешние (Angora_Cat)

MediaInfo

Общее
Полное имя : F:\С моей озвучкой\Путешествие к Морю\Podróż Nad Morze.avi
Формат : AVI
Формат/Информация : Audio Video Interleave
Размер файла : 303 Мбайт
Продолжительность : 46 м.
Общий поток : 910 Кбит/сек
Программа кодирования : VirtualDubModRus 1.5.10.2 (build 2542/release)
Библиотека кодирования : VirtualDubMod build 2542/release
Видео
Идентификатор : 0
Формат : MPEG-4 Visual
Параметр BVOP формата : Да
Параметр QPel формата : Нет
Параметр GMC формата : Без точки перехода
Параметр матрицы формата : Default (H.263)
Идентификатор кодека : DIVX
Идентификатор кодека/Информация : Project Mayo
Идентификатор кодека/Подсказка : DivX 4
Продолжительность : 46 м.
Битрейт : 671 Кбит/сек
Ширина : 640 пикселей
Высота : 464 пикселя
Соотношение сторон : 1,379
Частота кадров : 25,000 кадров/сек
Цветовое пространство : YUV
Субдискретизация насыщенности : 4:2:0
Битовая глубина : 8 бит
Тип развёртки : Прогрессивная
Метод сжатия : С потерями
Бит/(Пиксели*Кадры) : 0.090
Размер потока : 223 Мбайт (74%)
Аудио #1
Идентификатор : 1
Формат : MPEG Audio
Версия формата : Version 1
Профиль формата : Layer 3
Режим : Joint stereo
Расширение режима : MS Stereo
Идентификатор кодека : 55
Идентификатор кодека/Подсказка : MP3
Продолжительность : 46 м.
Вид битрейта : Постоянный
Битрейт : 112 Кбит/сек
Каналы : 2 канала
Частота : 44,1 КГц
Метод сжатия : С потерями
Размер потока : 37,2 Мбайт (12%)
Выравнивание : Соединение по промежуткам
Продолжительность промежутка : 40 мс. (1,00 видеокадр)
Время предзагрузки промежутка : 522 мс.
Аудио #2
Идентификатор : 2
Формат : MPEG Audio
Версия формата : Version 1
Профиль формата : Layer 3
Идентификатор кодека : 55
Идентификатор кодека/Подсказка : MP3
Продолжительность : 46 м.
Вид битрейта : Постоянный
Битрейт : 112 Кбит/сек
Каналы : 2 канала
Частота : 44,1 КГц
Метод сжатия : С потерями
Размер потока : 37,3 Мбайт (12%)
Выравнивание : Разделение по промежуткам
Продолжительность промежутка : 40 мс. (1,00 видеокадр)
Время предзагрузки промежутка : 500 мс.

Скриншоты

[teatrix.ru].t3922.torrent 
Торрент: Зарегистрирован [ 2015-10-07 12:13 ] · 5C618847B37EA59210CD532FF6E6BACFF950FBCC

Скачать .torrent

Скачать

12 KB

Статус: проверено
Скачан: 0 раз
Размер: 303 MB
terms.php



Быстрый ответ

Имя:

      
Для отправки сообщений необходимо включить JavaScript
Показать сообщения:    

Текущее время: 05-Дек 01:18

Часовой пояс: UTC + 3


Вы можете начинать темы
Вы можете отвечать на сообщения
Вы не можете редактировать свои сообщения
Вы не можете удалять свои сообщения
Вы не можете голосовать в опросах
Вы не можете прикреплять файлы к сообщениям
Вы можете скачивать файлы