Монолитный проект / Yekpare project (Денис Кадер / Deniz Kader, Кандас Сисман / Candas Sisman) [2010, Турция, экспериментальный, видеоинсталляция, короткий метр, HDRip-AVC]


Статистика раздачи [Обновить пиров]
Размер:  192 MB   |    Зарегистрирован:  1 год 1 месяц   |    Скачан:  0 раз

Полного источника не было: Никогда

 
   
 
 
 

[Цитировать]

Монолитный проект
Yekpare project- Страна: Турция
Жанр: экспериментальный, видеоинсталляция, короткий метр
Год выпуска: 2010
Продолжительность: 00:15:51
Перевод: Не требуется
Cубтитры: нет
Оригинальная аудиодорожка: музыкальное сопровождение
Режиссер: Денис Кадер / Deniz Kader, Кандас Сисман / Candaş Şişman
В ролях: нетОписание: По выбору Совета Евросоюза Стамбул получил звание "Культурная столица Европы - 2010". В связи с этим в городе происходило много замечательных арт-мероприятий. Одно из них — Yekpare project авторства молодых турецких художников Дениса Кадера (Deniz Kader) и Кандаса Сисмана (Candaş Şişman). Они рассказали историю своего города с помощью световых инсталляций. Площадкой проекта был выбран фасад знаменитого здания на железнодорожной станции Хайдарпаша, одного из главных архитектурных достопримечательностей Стамбула. Благодаря своей богатой истории этот дом стал не только полигоном для демонстрации графической хроники последних 8,5 тысяч лет, но и полноценным героем действа.
Качество видео: HDRip-AVC
Формат видео: MKV
Видео: AVC (H.264), 720x400 (16:9), 25 fps, ~1500 kbps avg, 0.208 bit/pixel
Аудио: AC3, 2 ch, 48 kHz, ~192.00 kbps avg

MediaInfo

Общее
Уникальный идентификатор : 255088388797724840702236295491748017207 (0xBFE83C94C602EA9EA43CD0798CE2B437)
Полное имя : E:\My Torrents 2\[apreder]MINI_MOVIES_09\[apreder]MM_Yekpare(2010)HDRip.mkv
Формат : Matroska
Версия формата : Version 2
Размер файла : 192 Мбайт
Продолжительность : 15 м.
Общий поток : 1694 Кбит/сек
Дата кодирования : UTC 2014-11-05 18:18:15
Программа кодирования : mkvmerge v7.3.0 ('Nouages') 64bit built on Oct 22 2014 18:53:34
Библиотека кодирования : libebml v1.3.0 + libmatroska v1.4.1
Видео
Идентификатор : 1
Формат : AVC
Формат/Информация : Advanced Video Codec
Профиль формата : High@L4.1
Параметр CABAC формата : Да
Параметр ReFrames формата : 16 кадров
Идентификатор кодека : V_MPEG4/ISO/AVC
Продолжительность : 15 м.
Битрейт : 1500 Кбит/сек
Ширина : 720 пикселей
Высота : 400 пикселей
Соотношение сторон : 16:9
Режим частоты кадров : Постоянный
Частота кадров : 25,000 кадров/сек
Цветовое пространство : YUV
Субдискретизация насыщенности : 4:2:0
Битовая глубина : 8 бит
Тип развёртки : Прогрессивная
Бит/(Пиксели*Кадры) : 0.208
Размер потока : 167 Мбайт (87%)
Библиотека кодирования : x264 core 142 r2431 ac76440
Настройки программы : cabac=1 / ref=16 / deblock=1:-1:-1 / analyse=0x3:0x133 / me=umh / subme=10 / psy=1 / psy_rd=1.00:0.15 / mixed_ref=1 / me_range=24 / chroma_me=1 / trellis=2 / 8x8dct=1 / cqm=0 / deadzone=21,11 / fast_pskip=1 / chroma_qp_offset=-3 / threads=6 / lookahead_threads=1 / sliced_threads=0 / nr=0 / decimate=1 / interlaced=0 / bluray_compat=0 / constrained_intra=0 / bframes=8 / b_pyramid=2 / b_adapt=2 / b_bias=0 / direct=3 / weightb=1 / open_gop=0 / weightp=2 / keyint=250 / keyint_min=25 / scenecut=40 / intra_refresh=0 / rc_lookahead=60 / rc=2pass / mbtree=1 / bitrate=1500 / ratetol=1.0 / qcomp=0.60 / qpmin=0 / qpmax=69 / qpstep=4 / cplxblur=20.0 / qblur=0.5 / vbv_maxrate=62500 / vbv_bufsize=78125 / nal_hrd=none / filler=0 / ip_ratio=1.40 / aq=1:1.00
Default : Да
Forced : Нет
Аудио
Идентификатор : 2
Формат : AC-3
Формат/Информация : Audio Coding 3
Расширение режима : CM (complete main)
Параметр Endianness формата : Big
Идентификатор кодека : A_AC3
Продолжительность : 15 м.
Вид битрейта : Постоянный
Битрейт : 192 Кбит/сек
Каналы : 2 канала
Расположение каналов : Front: L R
Частота : 48,0 КГц
Битовая глубина : 16 бит
Метод сжатия : С потерями
Размер потока : 21,8 Мбайт (11%)
Default : Да
Forced : Нет

Скриншот c названием фильма

Скриншоты

Резервные скриншоты

-[1'886]
[teatrix.ru].t3927.torrent 
Торрент: Зарегистрирован [ 2015-10-07 12:13 ] · 66B2EDD94F99C37A68BD30EDFC56D34BA58D3EA2

Скачать .torrent

Скачать

16 KB

Статус: проверено
Скачан: 0 раз
Размер: 192 MB
terms.php



Быстрый ответ

Имя:

      
Для отправки сообщений необходимо включить JavaScript
Показать сообщения:    

Текущее время: 03-Дек 22:47

Часовой пояс: UTC + 3


Вы можете начинать темы
Вы можете отвечать на сообщения
Вы не можете редактировать свои сообщения
Вы не можете удалять свои сообщения
Вы не можете голосовать в опросах
Вы не можете прикреплять файлы к сообщениям
Вы можете скачивать файлы