Секс-машины / Fickmaschinen / Fuck Machines (Мэтт Ламберт / Matt Lambert) [2010, Германия, экспериментальный, эротика, короткий метр, HDRip-AVC]


Статистика раздачи [Обновить пиров]
Размер:  35 MB   |    Зарегистрирован:  1 год 2 месяца   |    Скачан:  0 раз

Полного источника не было: Никогда

 
   
 
 
 

[Цитировать]

Секс-машины
Fickmaschinen- Страна: Германия
Жанр: экспериментальный, эротика, короткий метр
Год выпуска: 2010
Продолжительность: 00:01:50
Перевод: Субтитры
Cубтитры: русские
Оригинальная аудиодорожка: музыкальное сопровождение
Режиссер: Мэтт Ламберт / Matt LambertВ ролях: Дэниел МакКернан / Daniel McKernan, Дафна Роткейдж / Daphne Rotcage, Джонатан Смит / Jonathan Smith, Энди Эванс / Andy Evans
Описание: Когда гаснет свет, мы становимся ни кем иным, как секс-машинами.
Доп. информация: На территории РФ возрастное ограничение 18+.
Награды: 2 награды D&AD Awards (London) 2010 (студенческий приз, приз современных телекоммуникаций).

Качество видео: HDRip-AVC
Формат видео: MKV
Видео: AVC (H.264), 1152x640 (16:9), 25 fps, ~2500 kbps avg, 0.141 bit/pixel
Аудио: AC3, 2 ch, 48 kHz, ~192.00 kbps avg
Формат субтитров: softsub (SSA/ASS)
Доп. информация о субтитрах: Немецкие интертитры переведены субитрами. Дополнительно вшитые английские субтитры.

Пример субтитров

Format: Layer, Start, End, Style, Name, MarginL, MarginR, MarginV, Effect, TextDialogue: 0,0:00:04.07,0:00:07.40,Default,,0,0,0,,{\pos(574,532)}фильм\NМэтта ЛамбертаDialogue: 0,0:00:09.42,0:00:12.31,Default,,0,0,0,,{\pos(572,488)}СЕКС-МАШИНЫDialogue: 0,0:01:37.38,0:01:40.34,Default,,0,0,0,,{\pos(580,512)}Мы ни что иное, как секс-машины.Dialogue: 0,0:01:41.42,0:01:44.27,Default,,0,0,0,,{\pos(590,598)\i1}режиссер{\i0} Мэтт Ламберт\N{\i1}музыка{\i0} Дэвида КэмпаDialogue: 0,0:01:45.37,0:01:48.41,Default,,0,0,0,,{\pos(586,534)}Благодарность исполнителямDialogue: 0,0:01:49.38,0:01:49.91,Default,,0,0,0,,{\pos(592,524)}2010

MediaInfo

Общее
Уникальный идентификатор : 222353158581254884654359481261535255241 (0xA747A91F5086EAE1BB3B9DC5A92FDAC9)
Полное имя : E:\My Torrents 2\[apreder]MINI_MOVIES_09\[apreder]MM_Fickmaschinen(2010)HDRip.mkv
Формат : Matroska
Версия формата : Version 2
Размер файла : 35,4 Мбайт
Продолжительность : 1 м. 50 с.
Общий поток : 2694 Кбит/сек
Дата кодирования : UTC 2014-11-04 17:12:25
Программа кодирования : mkvmerge v7.3.0 ('Nouages') 64bit built on Oct 22 2014 18:53:34
Библиотека кодирования : libebml v1.3.0 + libmatroska v1.4.1
Видео
Идентификатор : 1
Формат : AVC
Формат/Информация : Advanced Video Codec
Профиль формата : High@L4.1
Параметр CABAC формата : Да
Параметр ReFrames формата : 11 кадров
Идентификатор кодека : V_MPEG4/ISO/AVC
Продолжительность : 1 м. 50 с.
Битрейт : 2500 Кбит/сек
Ширина : 1152 пикселя
Высота : 640 пикселей
Соотношение сторон : 16:9
Режим частоты кадров : Постоянный
Частота кадров : 24,000 кадра/сек
Цветовое пространство : YUV
Субдискретизация насыщенности : 4:2:0
Битовая глубина : 8 бит
Тип развёртки : Прогрессивная
Бит/(Пиксели*Кадры) : 0.141
Размер потока : 32,2 Мбайт (91%)
Библиотека кодирования : x264 core 142 r2431 ac76440
Настройки программы : cabac=1 / ref=11 / deblock=1:-1:-1 / analyse=0x3:0x133 / me=umh / subme=10 / psy=1 / psy_rd=1.00:0.15 / mixed_ref=1 / me_range=24 / chroma_me=1 / trellis=2 / 8x8dct=1 / cqm=0 / deadzone=21,11 / fast_pskip=1 / chroma_qp_offset=-3 / threads=6 / lookahead_threads=1 / sliced_threads=0 / nr=0 / decimate=1 / interlaced=0 / bluray_compat=0 / constrained_intra=0 / bframes=8 / b_pyramid=2 / b_adapt=2 / b_bias=0 / direct=3 / weightb=1 / open_gop=0 / weightp=2 / keyint=240 / keyint_min=24 / scenecut=40 / intra_refresh=0 / rc_lookahead=60 / rc=2pass / mbtree=1 / bitrate=2500 / ratetol=1.0 / qcomp=0.60 / qpmin=0 / qpmax=69 / qpstep=4 / cplxblur=20.0 / qblur=0.5 / vbv_maxrate=62500 / vbv_bufsize=78125 / nal_hrd=none / filler=0 / ip_ratio=1.40 / aq=1:1.00
Default : Да
Forced : Нет
Аудио
Идентификатор : 2
Формат : AC-3
Формат/Информация : Audio Coding 3
Расширение режима : CM (complete main)
Параметр Endianness формата : Big
Идентификатор кодека : A_AC3
Продолжительность : 1 м. 50 с.
Вид битрейта : Постоянный
Битрейт : 192 Кбит/сек
Каналы : 2 канала
Расположение каналов : Front: L R
Частота : 48,0 КГц
Битовая глубина : 16 бит
Метод сжатия : С потерями
Размер потока : 2,52 Мбайт (7%)
Default : Да
Forced : Нет
Текст
Идентификатор : 3
Формат : ASS
Идентификатор кодека : S_TEXT/ASS
Идентификатор кодека/Информация : Advanced Sub Station Alpha
Метод сжатия : Без потерь
Язык : Russian
Default : Да
Forced : Нет

Скриншот c названием фильма

Скриншоты

Резервные скриншоты

-[1'881]
[teatrix.ru].t3928.torrent 
Торрент: Зарегистрирован [ 2015-10-07 12:13 ] · 87FD2B03F727A0F958B6A655559047E65759B799

Скачать .torrent

Скачать

12 KB

Статус: проверено
Скачан: 0 раз
Размер: 35 MB
terms.php



Быстрый ответ

Имя:

      
Для отправки сообщений необходимо включить JavaScript
Показать сообщения:    

Текущее время: 10-Дек 19:42

Часовой пояс: UTC + 3


Вы можете начинать темы
Вы можете отвечать на сообщения
Вы не можете редактировать свои сообщения
Вы не можете удалять свои сообщения
Вы не можете голосовать в опросах
Вы не можете прикреплять файлы к сообщениям
Вы можете скачивать файлы