Габриель / Gabrielle (Марго Фруатье / Margo Fruitier, Поль Картрон / Paul Cartron) [2013, Бельгия, драма, короткий метр, SATRip] Sub Rus + Original Fre


Статистика раздачи [Обновить пиров]
Размер:  280 MB   |    Зарегистрирован:  1 год 1 месяц   |    Скачан:  0 раз

Полного источника не было: Никогда

 
   
 
 
 

[Цитировать]

Габриель / Gabrielle
Страна: Бельгия
Жанр: драма, короткий метр
Год выпуска: 2013
Продолжительность: 00:16:17
Перевод: Субтитры (перевод М.Кузиной, Éclair Group)
Cубтитры: русские (изначально вшитые)
Оригинальная аудиодорожка: французский

Режиссер: Марго Фруатье / Margo Fruitier, Поль Картрон / Paul Cartron
В ролях: Ким Сейсенс, Сэм Лувик, Ингрид Хайдершайд
Описание: Карина, листая записную книжку, рассказывает Габриель о мужчинах, бывших ее клиентами в прошлом. Девушка останавливается на одном из них…
Качество видео: SATRip
Формат видео: AVI
Видео: 688x384 (1.79:1), 25 fps, XviD build 73 ~2199 kbps avg, 0.33 bit/pixel
Аудио: 48 kHz, AC3 Dolby Digital, 2/0 (L,R) ch, ~192 kbps
Формат субтитров: hardsub (неотключаемые)

MediaInfo

Общее
Полное имя : J:\Gabrielle.2013.satrip_[teko].avi
Формат : AVI
Формат/Информация : Audio Video Interleave
Размер файла : 280 Мбайт
Продолжительность : 16 м.
Общий поток : 2401 Кбит/сек
Программа кодирования : VirtualDubMod 1.5.10.3 | www.virtualdub-fr.org || (build 2550/release)
Библиотека кодирования : VirtualDubMod build 2550/release
Видео
Идентификатор : 0
Формат : MPEG-4 Visual
Профиль формата : Advanced Simple@L5
Параметр BVOP формата : 1
Параметр QPel формата : Нет
Параметр GMC формата : Без точки перехода
Параметр матрицы формата : Выборочная
Идентификатор кодека : XVID
Идентификатор кодека/Подсказка : XviD
Продолжительность : 16 м.
Битрейт : 2200 Кбит/сек
Ширина : 688 пикселей
Высота : 384 пикселя
Соотношение сторон : 16:9
Частота кадров : 25,000 кадров/сек
Цветовое пространство : YUV
Субдискретизация насыщенности : 4:2:0
Битовая глубина : 8 бит
Тип развёртки : Прогрессивная
Метод сжатия : С потерями
Бит/(Пиксели*Кадры) : 0.333
Размер потока : 256 Мбайт (92%)
Библиотека кодирования : XviD 73
Аудио
Идентификатор : 1
Формат : AC-3
Формат/Информация : Audio Coding 3
Расширение режима : CM (complete main)
Параметр Endianness формата : Big
Идентификатор кодека : 2000
Продолжительность : 16 м.
Вид битрейта : Постоянный
Битрейт : 192 Кбит/сек
Каналы : 2 канала
Расположение каналов : Front: L R
Частота : 48,0 КГц
Битовая глубина : 16 бит
Метод сжатия : С потерями
Размер потока : 22,4 Мбайт (8%)
Выравнивание : Разделение по промежуткам
Продолжительность промежутка : 40 мс. (1,00 видеокадр)
Время предзагрузки промежутка : 500 мс.

Скриншоты

[teatrix.ru].t3929.torrent 
Торрент: Зарегистрирован [ 2015-10-07 12:13 ] · 12B3EF7566E7BDEF293391814365A4D8E7E85F6E

Скачать .torrent

Скачать

12 KB

Статус: проверено
Скачан: 0 раз
Размер: 280 MB
terms.php



Быстрый ответ

Имя:

      
Для отправки сообщений необходимо включить JavaScript
Показать сообщения:    

Текущее время: 04-Дек 23:17

Часовой пояс: UTC + 3


Вы можете начинать темы
Вы можете отвечать на сообщения
Вы не можете редактировать свои сообщения
Вы не можете удалять свои сообщения
Вы не можете голосовать в опросах
Вы не можете прикреплять файлы к сообщениям
Вы можете скачивать файлы