Настройка Машины сновидений / Tuning the Sleeping Machine (Дэвид Шерман / David Sherman) [1996, США, экспериментальный, ужасы, короткий метр, DVDRip-AVC]


Статистика раздачи [Обновить пиров]
Размер:  156 MB   |    Зарегистрирован:  1 год 1 месяц   |    Скачан:  1 раз

Полного источника не было: 2 месяца 21 день

 
   
 
 
 

[Цитировать]

Настройка Машины сновидений
Tuning the Sleeping Machine- Страна: США
Жанр: экспериментальный, ужасы, короткий метр
Год выпуска: 1996
Продолжительность: 00:12:54
Перевод: Не требуется
Cубтитры: нет
Оригинальная аудиодорожка: музыкальное сопровождение, фоновые шумы
Режиссер: Дэвид Шерман / David ShermanВ ролях: Йоста Экман / Gösta Ekman (Faust), Расселл Напье / Russell Napier (The Time Traveller)
Описание: Используя эпизоды из фильмов "Фауст" (1926) реж. Фридриха Вильгельма Мурнау и "Машина времени" (1949) реж. Роберта Барра, а также образ Распутина Дэвид Шерман создает иную реальность, присущую нашим снам…
Доп. информация: Фильм вышел на DVD-сборнике Experiments in Terror Vol. 1 (2003).

Качество видео: DVDRip-AVC
Формат видео: MKV
Видео: AVC (H.264), 640x480, 25 fps, ~1500 kbps avg, 0.195 bit/pixel
Аудио: AC3, 2 ch, 48 kHz, ~192.00 kbps avg

MediaInfo

Общее
Уникальный идентификатор : 223552883905763221642444593511559502400 (0xA82EB825CD7D1A85B15F50D631DA9A40)
Полное имя : E:\My Torrents 2\[apreder]MINI_MOVIES_09\[apreder]MM_Tuning_the_Sleeping_Machine(1996)DVDRip.mkv
Формат : Matroska
Версия формата : Version 2
Размер файла : 156 Мбайт
Продолжительность : 12 м.
Общий поток : 1694 Кбит/сек
Дата кодирования : UTC 2014-10-11 11:28:52
Программа кодирования : mkvmerge v7.2.0 ('On Every Street') 64bit built on Sep 13 2014 15:52:10
Библиотека кодирования : libebml v1.3.0 + libmatroska v1.4.1
Видео
Идентификатор : 1
Формат : AVC
Формат/Информация : Advanced Video Codec
Профиль формата : High@L4.1
Параметр CABAC формата : Да
Параметр ReFrames формата : 16 кадров
Идентификатор кодека : V_MPEG4/ISO/AVC
Продолжительность : 12 м.
Битрейт : 1500 Кбит/сек
Ширина : 640 пикселей
Высота : 480 пикселей
Соотношение сторон : 4:3
Режим частоты кадров : Постоянный
Частота кадров : 25,000 кадров/сек
Цветовое пространство : YUV
Субдискретизация насыщенности : 4:2:0
Битовая глубина : 8 бит
Тип развёртки : Прогрессивная
Бит/(Пиксели*Кадры) : 0.195
Размер потока : 136 Мбайт (87%)
Библиотека кодирования : x264 core 142 r2431 ac76440
Настройки программы : cabac=1 / ref=16 / deblock=1:-1:-1 / analyse=0x3:0x133 / me=umh / subme=10 / psy=1 / psy_rd=1.00:0.15 / mixed_ref=1 / me_range=24 / chroma_me=1 / trellis=2 / 8x8dct=1 / cqm=0 / deadzone=21,11 / fast_pskip=1 / chroma_qp_offset=-3 / threads=6 / lookahead_threads=1 / sliced_threads=0 / nr=0 / decimate=1 / interlaced=0 / bluray_compat=0 / constrained_intra=0 / bframes=8 / b_pyramid=2 / b_adapt=2 / b_bias=0 / direct=3 / weightb=0 / open_gop=0 / weightp=2 / keyint=250 / keyint_min=25 / scenecut=40 / intra_refresh=0 / rc_lookahead=60 / rc=2pass / mbtree=1 / bitrate=1500 / ratetol=1.0 / qcomp=0.60 / qpmin=0 / qpmax=69 / qpstep=4 / cplxblur=20.0 / qblur=0.5 / vbv_maxrate=62500 / vbv_bufsize=78125 / nal_hrd=none / filler=0 / ip_ratio=1.40 / aq=1:1.00
Default : Да
Forced : Нет
Аудио
Идентификатор : 2
Формат : AC-3
Формат/Информация : Audio Coding 3
Расширение режима : CM (complete main)
Параметр Endianness формата : Big
Идентификатор кодека : A_AC3
Продолжительность : 12 м.
Вид битрейта : Постоянный
Битрейт : 192 Кбит/сек
Каналы : 2 канала
Расположение каналов : Front: L R
Частота : 48,0 КГц
Битовая глубина : 16 бит
Метод сжатия : С потерями
Размер потока : 17,7 Мбайт (11%)
Default : Да
Forced : Нет

Скриншот c названием фильма

Скриншоты

Резервные скриншоты

-[1'805]
[teatrix.ru].t3931.torrent 
Торрент: Зарегистрирован [ 2015-10-07 12:13 ] · 408350A8F5ACD2EBC00BB17CD7D8C1C5D80A0234

Скачать .torrent

Скачать

13 KB

Статус: проверено
Скачан: 1 раз
Размер: 156 MB
terms.php



Быстрый ответ

Имя:

      
Для отправки сообщений необходимо включить JavaScript
Показать сообщения:    

Текущее время: 03-Дек 07:41

Часовой пояс: UTC + 3


Вы можете начинать темы
Вы можете отвечать на сообщения
Вы не можете редактировать свои сообщения
Вы не можете удалять свои сообщения
Вы не можете голосовать в опросах
Вы не можете прикреплять файлы к сообщениям
Вы можете скачивать файлы