Снаружи / Outer Space (Петер Черкасски / Peter Tscherkassky) [1999, Австрия, авангард, ужасы, анимация, короткий метр, DVDRip-AVC]


Статистика раздачи [Обновить пиров]
Размер:  118 MB   |    Зарегистрирован:  1 год 2 месяца   |    Скачан:  1 раз

Полного источника не было: 8 месяцев 21 день

 
   
 
 
 

[Цитировать]

Снаружи
Outer Space- Страна: Австрия
Жанр: авангард, ужасы, анимация, короткий метр
Год выпуска: 1999
Продолжительность: 00:09:44
Перевод: Не требуется
Cубтитры: нет
Оригинальная аудиодорожка: фоновый шум
Режиссер: Петер Черкасски / Peter TscherkasskyВ ролях: Барбара Херши / Barbara Hershey (archive footage)
Описание: Анимация различных фотографий в параноидальном ритме передает сначала ощущение тревоги, а затем ужаса находящейся ночью в доме одинокой женщины, за которой наблюдает кто-то снаружи.
Доп. информация: Фильм вышел на DVD-сборнике Experiments in Terror Vol. 1 (2003).
Награды: приз за инновации в кино Diagonale (Austria) 1999; приз "Серебряный Хьюго" за лучшую экспериментальную короткометражку Chicago International Film Festival 2000; 2-й приз жюри Uppsala International Short Film Festival 2000; приз за лучший фильм ужасов в коротком метре Seattle International Film Festival 2000; приз "Золотая игла" за новое видение San Francisco International Film Festival 2000.

Качество видео: DVDRip-AVC
Формат видео: MKV
Видео: AVC (H.264), 640x272, 25 fps, ~1500 kbps avg, 0.345 bit/pixel
Аудио: AC3, 2 ch, 48 kHz, ~192.00 kbps avg

MediaInfo

Общее
Уникальный идентификатор : 234383209110960425794041840095071972396 (0xB054906820449F409C513627B7EA2C2C)
Полное имя : E:\My Torrents 2\[apreder]MINI_MOVIES_09\[apreder]MM_Outer_Space(2009)DVDRip.mkv
Формат : Matroska
Версия формата : Version 2
Размер файла : 118 Мбайт
Продолжительность : 9 м. 44 с.
Общий поток : 1696 Кбит/сек
Дата кодирования : UTC 2014-10-11 09:00:13
Программа кодирования : mkvmerge v7.2.0 ('On Every Street') 64bit built on Sep 13 2014 15:52:10
Библиотека кодирования : libebml v1.3.0 + libmatroska v1.4.1
Видео
Идентификатор : 1
Формат : AVC
Формат/Информация : Advanced Video Codec
Профиль формата : High@L4.1
Параметр CABAC формата : Да
Параметр ReFrames формата : 16 кадров
Идентификатор кодека : V_MPEG4/ISO/AVC
Продолжительность : 9 м. 44 с.
Битрейт : 1500 Кбит/сек
Ширина : 640 пикселей
Высота : 272 пикселя
Соотношение сторон : 2,35:1
Режим частоты кадров : Постоянный
Частота кадров : 25,000 кадров/сек
Цветовое пространство : YUV
Субдискретизация насыщенности : 4:2:0
Битовая глубина : 8 бит
Тип развёртки : Прогрессивная
Бит/(Пиксели*Кадры) : 0.345
Размер потока : 102 Мбайт (87%)
Библиотека кодирования : x264 core 142 r2431 ac76440
Настройки программы : cabac=1 / ref=16 / deblock=1:-1:-1 / analyse=0x3:0x133 / me=umh / subme=10 / psy=1 / psy_rd=1.00:0.15 / mixed_ref=1 / me_range=24 / chroma_me=1 / trellis=2 / 8x8dct=1 / cqm=0 / deadzone=21,11 / fast_pskip=1 / chroma_qp_offset=-3 / threads=6 / lookahead_threads=1 / sliced_threads=0 / nr=0 / decimate=1 / interlaced=0 / bluray_compat=0 / constrained_intra=0 / bframes=8 / b_pyramid=2 / b_adapt=2 / b_bias=0 / direct=3 / weightb=0 / open_gop=0 / weightp=2 / keyint=250 / keyint_min=25 / scenecut=40 / intra_refresh=0 / rc_lookahead=60 / rc=2pass / mbtree=1 / bitrate=1500 / ratetol=1.0 / qcomp=0.60 / qpmin=0 / qpmax=69 / qpstep=4 / cplxblur=20.0 / qblur=0.5 / vbv_maxrate=62500 / vbv_bufsize=78125 / nal_hrd=none / filler=0 / ip_ratio=1.40 / aq=1:1.00
Default : Да
Forced : Нет
Аудио
Идентификатор : 2
Формат : AC-3
Формат/Информация : Audio Coding 3
Расширение режима : CM (complete main)
Параметр Endianness формата : Big
Идентификатор кодека : A_AC3
Продолжительность : 9 м. 44 с.
Вид битрейта : Постоянный
Битрейт : 192 Кбит/сек
Каналы : 2 канала
Расположение каналов : Front: L R
Частота : 48,0 КГц
Битовая глубина : 16 бит
Метод сжатия : С потерями
Размер потока : 13,4 Мбайт (11%)
Default : Да
Forced : Нет

Скриншот c названием фильма

Скриншоты

Резервные скриншоты

-[1'803]
[teatrix.ru].t3933.torrent 
Торрент: Зарегистрирован [ 2015-10-07 12:13 ] · F890A618DB57FF53EF9A88A7F9A2703740C89F44

Скачать .torrent

Скачать

19 KB

Статус: проверено
Скачан: 1 раз
Размер: 118 MB
terms.php



Быстрый ответ

Имя:

      
Для отправки сообщений необходимо включить JavaScript
Показать сообщения:    

Текущее время: 09-Дек 10:48

Часовой пояс: UTC + 3


Вы можете начинать темы
Вы можете отвечать на сообщения
Вы не можете редактировать свои сообщения
Вы не можете удалять свои сообщения
Вы не можете голосовать в опросах
Вы не можете прикреплять файлы к сообщениям
Вы можете скачивать файлы