Распалённые / Psych-Burn / The Love Generation (Джей-Икс Уильямс / J.X. Williams) [1968, США, психоделика, музыкальный, короткий метр, DVDRip-AVC]


Статистика раздачи [Обновить пиров]
Размер:  61 MB   |    Зарегистрирован:  1 год 1 месяц   |    Скачан:  0 раз

Полного источника не было: Никогда

 
   
 
 
 

[Цитировать]

Распалённые
Psych-Burn- Страна: США
Жанр: психоделика, музыкальный, короткий метр
Год выпуска: 1968
Продолжительность: 00:03:09
Перевод: Не требуется
Cубтитры: нет
Оригинальная аудиодорожка: музыкальное сопровождение
Режиссер: Джей-Икс Уильямс / J.X. Williams
В ролях: футажОписание: В 1960-х годах псевдоним J.X. Williams указывали в титрах фильмов для взрослых многие режиссеры, например, его использовал Эд Вуд в фильме "Парижские страсти / Parisian Passions" (1966) о расследовании полицейским-трансвеститом убийств стриптизерш.
Самый талантливый режиссер, о котором вы никогда не слышали, не делавший различия между порнографией и искусством, создававший фильмы из человеческих пороков, и, как уверяют некоторые, даже не существовавший в действительности, Ноэль Лоуренс / Noel Lawrence, подписывавший все свои работы псевдонимом, снял 54 художественных фильма категории "В", написал 78 сценариев и книг. Его досье в ФБР составляет более 6'000 страниц. В 1940-х годах он написал несколько книг и сценариев в жанре нуар, в 1950-х снимал порнофильмы для мужчин, в 1960-х работал в жанре сексплуатации, параллельно производя визульные киноэксперименты и снимая музыкальное видео, а с 1979 года, закончив кинокарьеру, увлекся слэш-фотографией.
В короткометражке о жизни хиппи использован футаж из фильма "Алиса в стране кислоты / Alice In Acidland" (1969) и песня "Tears and Joys" группы The Groop из только что вышедшего на экраны фильма "Полуночный ковбой / Midnight Cowboy".
Доп. информация: Фильм вышел на DVD-сборнике J.X. Williams' Peep Show (2010).
Участник New York Underground Film Festival 2004; Chicago Underground Film Festival 2004; Cork Film Festival 2004; Nashville Film Festival 2006; Slamdance Film Festival 2011; более 50 КФ.

J.X. Williams о фильме (из книги "The Big Footnote")

Компания ABC выделила нам немного денег для съемок нескольких короткометражных фильмов для пилотного выпуска нового телевизионного шоу "Вечеринка хиппи / Love-In Tonite", которое должно было состоять из разнообразных живых выступлений: песен, пародий и еще много чего, что позволило бы заработать на формирующейся аудитории хиппи. Я быстро понял, что шоу станет сущей катастрофой. Представьте себе, если бы "Выпуск для полуночников / Midnight Special" был спродюсирован Аароном Спеллингом / Aaron Spelling. Затем в качестве конферансье пригласили Чарльза Нельсона Рейли / Charles Nelson Reilly, но шоу это не спасло. Тогда я решил сделать прощальный хук под названием "Psych-Burn". Фильм был поставлен в эфир без предварительного просмотра на редакционной коллегии и открывал первый Осенний сезон цикла. Говорят, они все там со стульев попадали, когда увидели это в эфире.

Качество видео: DVDRip-AVC
Формат видео: MKV
Видео: AVC (H.264), 640x480, 23,976 fps, ~2500 kbps avg, 0.339 bit/pixel
Аудио: AC3, 2 ch, 48 kHz, ~192.00 kbps avg

MediaInfo

Общее
Уникальный идентификатор : 188253177196440895683567969472349905926 (0x8DA03E3C61F5A424BB0A7BF553DAA406)
Полное имя : E:\My Torrents 2\[apreder]MINI_MOVIES_09\[apreder]MM_Psych-Burn(1968)DVDRip.mkv
Формат : Matroska
Версия формата : Version 2
Размер файла : 61,0 Мбайт
Продолжительность : 3 м. 9 с.
Общий поток : 2699 Кбит/сек
Дата кодирования : UTC 2014-10-10 17:48:43
Программа кодирования : mkvmerge v7.2.0 ('On Every Street') 64bit built on Sep 13 2014 15:52:10
Библиотека кодирования : libebml v1.3.0 + libmatroska v1.4.1
Видео
Идентификатор : 1
Формат : AVC
Формат/Информация : Advanced Video Codec
Профиль формата : High@L4.1
Параметр CABAC формата : Да
Параметр ReFrames формата : 16 кадров
Идентификатор кодека : V_MPEG4/ISO/AVC
Продолжительность : 3 м. 9 с.
Битрейт : 2500 Кбит/сек
Ширина : 640 пикселей
Высота : 480 пикселей
Соотношение сторон : 4:3
Режим частоты кадров : Постоянный
Частота кадров : 23,976 кадра/сек
Цветовое пространство : YUV
Субдискретизация насыщенности : 4:2:0
Битовая глубина : 8 бит
Тип развёртки : Прогрессивная
Бит/(Пиксели*Кадры) : 0.339
Размер потока : 55,4 Мбайт (91%)
Библиотека кодирования : x264 core 142 r2431 ac76440
Настройки программы : cabac=1 / ref=16 / deblock=1:-1:-1 / analyse=0x3:0x133 / me=umh / subme=10 / psy=1 / psy_rd=1.00:0.15 / mixed_ref=1 / me_range=24 / chroma_me=1 / trellis=2 / 8x8dct=1 / cqm=0 / deadzone=21,11 / fast_pskip=1 / chroma_qp_offset=-3 / threads=6 / lookahead_threads=1 / sliced_threads=0 / nr=0 / decimate=1 / interlaced=0 / bluray_compat=0 / constrained_intra=0 / bframes=8 / b_pyramid=2 / b_adapt=2 / b_bias=0 / direct=3 / weightb=0 / open_gop=0 / weightp=2 / keyint=240 / keyint_min=23 / scenecut=40 / intra_refresh=0 / rc_lookahead=60 / rc=2pass / mbtree=1 / bitrate=2500 / ratetol=1.0 / qcomp=0.60 / qpmin=0 / qpmax=69 / qpstep=4 / cplxblur=20.0 / qblur=0.5 / vbv_maxrate=62500 / vbv_bufsize=78125 / nal_hrd=none / filler=0 / ip_ratio=1.40 / aq=1:1.00
Default : Да
Forced : Нет
Аудио
Идентификатор : 2
Формат : AC-3
Формат/Информация : Audio Coding 3
Расширение режима : CM (complete main)
Параметр Endianness формата : Big
Идентификатор кодека : A_AC3
Продолжительность : 3 м. 9 с.
Вид битрейта : Постоянный
Битрейт : 192 Кбит/сек
Каналы : 2 канала
Расположение каналов : Front: L R
Частота : 48,0 КГц
Битовая глубина : 16 бит
Метод сжатия : С потерями
Размер потока : 4,34 Мбайт (7%)
Default : Да
Forced : Нет

Скриншот c названием фильма

Скриншоты

Резервные скриншоты

-[1'801]
[teatrix.ru].t3934.torrent 
Торрент: Зарегистрирован [ 2015-10-07 12:13 ] · 4C3602845C249BA10EC85A05DE5D16EE15C078E9

Скачать .torrent

Скачать

20 KB

Статус: проверено
Скачан: 0 раз
Размер: 61 MB
terms.php



Быстрый ответ

Имя:

      
Для отправки сообщений необходимо включить JavaScript
Показать сообщения:    

Текущее время: 06-Дек 15:10

Часовой пояс: UTC + 3


Вы можете начинать темы
Вы можете отвечать на сообщения
Вы не можете редактировать свои сообщения
Вы не можете удалять свои сообщения
Вы не можете голосовать в опросах
Вы не можете прикреплять файлы к сообщениям
Вы можете скачивать файлы