Сатан-Клаус / Satan Claus (Джей-Икс Уильямс / J.X. Williams) [1975, США, авангард, грайндхаус, короткий метр, DVDRip-AVC]


Статистика раздачи [Обновить пиров]
Размер:  59 MB   |    Зарегистрирован:  1 год 1 месяц   |    Скачан:  0 раз

Полного источника не было: Никогда

 
   
 
 
 

[Цитировать]

Сатан-Клаус
Satán Claus- Страна: США
Жанр: авангард, грайндхаус, короткий метр
Год выпуска: 1975
Продолжительность: 00:03:02
Перевод: Субтитры (ralf124c41+)
Cубтитры: английские интертитры переведены русскими субтитрами
Оригинальная аудиодорожка: немой, музыкальное сопровождение
Режиссер: Джей-Икс Уильямс / J.X. Williams
В ролях: неизвестныОписание: В 1960-х годах псевдоним J.X. Williams указывали в титрах фильмов для взрослых многие режиссеры, например, его использовал Эд Вуд в фильме "Парижские страсти / Parisian Passions" (1966) о расследовании полицейским-трансвеститом убийств стриптизерш.
Самый талантливый режиссер, о котором вы никогда не слышали, не делавший различия между порнографией и искусством, создававший фильмы из человеческих пороков, и, как уверяют некоторые, даже не существовавший в действительности, Ноэль Лоуренс / Noel Lawrence, подписывавший все свои работы псевдонимом, снял 54 художественных фильма категории "В", написал 78 сценариев и книг. Его досье в ФБР составляет более 6'000 страниц. В 1940-х годах он написал несколько книг и сценариев в жанре нуар, в 1950-х снимал порнофильмы для мужчин, в 1960-х работал в жанре сексплуатации, параллельно производя визульные киноэксперименты и снимая музыкальное видео, а с 1979 года, закончив кинокарьеру, увлекся слэш-фотографией.
Вашему вниманию предлагается Рождественская страшилка о том, что родителям следует больше внимания уделять своим детям.
Доп. информация: Фильм вышел на DVD-сборнике Experiments in Terror Vol. 3 (2009).
Участник New York Underground Film Festival 2004; Chicago Underground Film Festival 2004; Cork Film Festival (Ireland) 2004; Nashville Film Festival 2006; White Trash Fast Food (Berlin) 2009; Slamdance Film Festival 2011; более 50 КФ.

J.X. Williams о фильме (из мемуаров "Through A Lens Darkly: Reflections of a "cine-spook")

В середине 70-х я работал киномехаником в одном вшивом кинотеатре в центре Лос-Анджелеса, владелец которого задолжал мне за 6 недель работы, а когда я заговорил о причитающихся мне деньгах, этот подонок имел наглость сообщить мне, что я уволен прямо в Рождественскую неделю. Он подумал бы дважды, если бы знал мою репутацию насмешника. В последний день работы был детский Рождественский утренник. Перед показом детского фильма я без предупреждения запустил только что снятый мною фильм "Сатан-Клаус". Сразу после его окончания я сбежал из кинотеатра, но слышал потом, что владелец вынужден был вернуть всю кассу. А несколько возмущенных родителей даже подали иски против кинотеатра. С Рождеством, подлый ублюдок!

Качество видео: DVDRip-AVC
Формат видео: MKV
Видео: AVC (H.264), 640x480, 23,976 fps, ~2500 kbps avg, 0.339 bit/pixel
Аудио: AC3, 2 ch, 48 kHz, ~192.00 kbps avg
Формат субтитров: softsub (SRT)
Доп. информация о субтитрах: форсированные

Пример субтитров

100:00:00,725 --> 00:00:05,301САТАН-КЛАУС
200:00:08,055 --> 00:00:10,116Правдивая история о несчастноммылыше из богатого семейства.
300:00:10,316 --> 00:00:12,684У него есть все игрушки, о которыхтолько может мечтать ребенок.но ему грустно и одиноко.
400:00:15,661 --> 00:00:19,515Несмотря на все, что он имеет,ему не хватает главного -любви родителей.
500:00:24,757 --> 00:00:27,158"Оставь мальчика, мы опаздываемна Рождество, Гертруда!"
600:00:47,728 --> 00:00:49,309Дорогой Санта-Клаус,Я очень одинок.
700:00:49,509 --> 00:00:51,612Всё, что что я хочу на Рождество,это братишку, чтобы с ним играть.
800:00:51,812 --> 00:00:53,803Я очень одинок. Не мог бы ты сделать,чтобы родители проводили со мнойбольше времени?
900:00:54,003 --> 00:00:55,120Я одинок. Кто позаботится обо мон?Я хочу...
1000:00:55,320 --> 00:00:59,195Сатан-Клаус.Гори! Уничтожай! Гори! Уничтожай!
1100:00:59,395 --> 00:01:04,074Полицейские услышали шумво дворе дома Ливингстонов.
1200:01:25,578 --> 00:01:29,769Между тем, на вечеринке...
1300:01:34,760 --> 00:01:35,786"Джордж, мне кажется,случилось что-то ужасное..."
1400:02:58,017 --> 00:03:00,843Счастливого Рождества!Джей-Икс Уильямс

MediaInfo

Общее
Уникальный идентификатор : 212978789514542466194439884480163923675 (0xA03A390B077195B8A7A9B0BEAD68C6DB)
Полное имя : E:\My Torrents 2\[apreder]MINI_MOVIES_09\[apreder]MM_Satan_Claus(1975)DVDRip.mkv
Формат : Matroska
Версия формата : Version 2
Размер файла : 58,5 Мбайт
Продолжительность : 3 м. 2 с.
Общий поток : 2692 Кбит/сек
Дата кодирования : UTC 2014-10-10 15:27:36
Программа кодирования : mkvmerge v7.2.0 ('On Every Street') 64bit built on Sep 13 2014 15:52:10
Библиотека кодирования : libebml v1.3.0 + libmatroska v1.4.1
Видео
Идентификатор : 1
Формат : AVC
Формат/Информация : Advanced Video Codec
Профиль формата : High@L4.1
Параметр CABAC формата : Да
Параметр ReFrames формата : 16 кадров
Идентификатор кодека : V_MPEG4/ISO/AVC
Продолжительность : 3 м. 2 с.
Битрейт : 2500 Кбит/сек
Ширина : 640 пикселей
Высота : 480 пикселей
Соотношение сторон : 4:3
Режим частоты кадров : Постоянный
Частота кадров : 23,976 кадра/сек
Цветовое пространство : YUV
Субдискретизация насыщенности : 4:2:0
Битовая глубина : 8 бит
Тип развёртки : Прогрессивная
Бит/(Пиксели*Кадры) : 0.339
Размер потока : 53,2 Мбайт (91%)
Библиотека кодирования : x264 core 142 r2431 ac76440
Настройки программы : cabac=1 / ref=16 / deblock=1:-1:-1 / analyse=0x3:0x133 / me=umh / subme=10 / psy=1 / psy_rd=1.00:0.15 / mixed_ref=1 / me_range=24 / chroma_me=1 / trellis=2 / 8x8dct=1 / cqm=0 / deadzone=21,11 / fast_pskip=1 / chroma_qp_offset=-3 / threads=6 / lookahead_threads=1 / sliced_threads=0 / nr=0 / decimate=1 / interlaced=0 / bluray_compat=0 / constrained_intra=0 / bframes=8 / b_pyramid=2 / b_adapt=2 / b_bias=0 / direct=3 / weightb=0 / open_gop=0 / weightp=2 / keyint=240 / keyint_min=23 / scenecut=40 / intra_refresh=0 / rc_lookahead=60 / rc=2pass / mbtree=1 / bitrate=2500 / ratetol=1.0 / qcomp=0.60 / qpmin=0 / qpmax=69 / qpstep=4 / cplxblur=20.0 / qblur=0.5 / vbv_maxrate=62500 / vbv_bufsize=78125 / nal_hrd=none / filler=0 / ip_ratio=1.40 / aq=1:1.00
Default : Да
Forced : Нет
Аудио
Идентификатор : 2
Формат : AC-3
Формат/Информация : Audio Coding 3
Расширение режима : CM (complete main)
Параметр Endianness формата : Big
Идентификатор кодека : A_AC3
Продолжительность : 3 м. 2 с.
Вид битрейта : Постоянный
Битрейт : 192 Кбит/сек
Каналы : 2 канала
Расположение каналов : Front: L R
Частота : 48,0 КГц
Битовая глубина : 16 бит
Метод сжатия : С потерями
Размер потока : 4,17 Мбайт (7%)
Язык : English
Default : Да
Forced : Нет
Текст
Идентификатор : 3
Формат : UTF-8
Идентификатор кодека : S_TEXT/UTF8
Идентификатор кодека/Информация : UTF-8 Plain Text
Язык : Russian
Default : Да
Forced : Нет

Скриншот c названием фильма

Скриншоты

Резервные скриншоты

-[1'800]
[teatrix.ru].t3935.torrent 
Торрент: Зарегистрирован [ 2015-10-07 12:13 ] · B0CDE3EFAAB6A8DA6AED1F9C901FB04CE1933C47

Скачать .torrent

Скачать

19 KB

Статус: проверено
Скачан: 0 раз
Размер: 59 MB
terms.php



Быстрый ответ

Имя:

      
Для отправки сообщений необходимо включить JavaScript
Показать сообщения:    

Текущее время: 07-Дек 00:53

Часовой пояс: UTC + 3


Вы можете начинать темы
Вы можете отвечать на сообщения
Вы не можете редактировать свои сообщения
Вы не можете удалять свои сообщения
Вы не можете голосовать в опросах
Вы не можете прикреплять файлы к сообщениям
Вы можете скачивать файлы