Побег / La Fugue (Жан-Бернар Марлин / Jean-Bernard Marlin) [2013, Франция, драма, WEB-DLRip] sub rus + original fr


Статистика раздачи [Обновить пиров]
Размер:  270 MB   |    Зарегистрирован:  1 год 1 месяц   |    Скачан:  0 раз

Полного источника не было: Никогда

 
   
 
 
 

[Цитировать]

Побег / La FugueГод выпуска: 2013
Страна: Франция
Жанр: Драма
Продолжительность: 00:22:21
Перевод: Субтитры
Cубтитры: русские (Myfrenchfilmfestival)
Оригинальная аудиодорожка: французский
Режиссер: Жан-Бернар Марлин / Jean-Bernard Marlin
Сценарий: Жан-Бернар Марлин / Jean-Bernard Marlin
Продюсер: Valentine De Blignières
Оператор: Жюльен Пупар / Julien Poupard
В ролях: Адель Беншериф, Медина Ялаи-Описание: СИЗО для несовершеннолетних правонарушителей в Марселе. Лакдар, молодой социальный работник, под присмотром которого находится Сабрина. Сегодня суд должен объявить свое решение по совершенным Сабриной преступлениям. Поначалу она отказывается идти, и суд откладывает слушание. Но Лакдар пытается предать ей уверенности в себе…-Рейтинг
[url=http://www.kinopoisk.ru/film/734837/‎]Кинопоиск[/url]
IMDB-Качество: WEB-DLRip
Формат: AVI
Видео: XviD; 720x304 (2.35:1); 1553 Kbps; 25 fps; 0,284 bpp
Аудио: MP3; 128 Kbps; CBR; 2 ch; 44.1 KHz-

MI

Format : AVI
Format/Info : Audio Video Interleave
File size : 270 MiB
Duration : 22mn 21s
Overall bit rate : 1 691 Kbps
Writing application : VirtualDubMod 1.5.10.3 | www.virtualdub-fr.org || (build 2550/release)
Writing library : VirtualDubMod build 2550/release
Video
ID : 0
Format : MPEG-4 Visual
Format profile : Advanced Simple@L5
Format settings, BVOP : 1
Format settings, QPel : No
Format settings, GMC : No warppoints
Format settings, Matrix : Default (MPEG)
Codec ID : XVID
Codec ID/Hint : XviD
Duration : 22mn 21s
Bit rate : 1 553 Kbps
Width : 720 pixels
Height : 304 pixels
Display aspect ratio : 2.35:1
Frame rate : 25.000 fps
Color space : YUV
Chroma subsampling : 4:2:0
Bit depth : 8 bits
Scan type : Progressive
Compression mode : Lossy
Bits/(Pixel*Frame) : 0.284
Stream size : 248 MiB (92%)
Writing library : XviD 1.2.1 (UTC 2008-12-04)
Audio
ID : 1
Format : MPEG Audio
Format version : Version 1
Format profile : Layer 3
Codec ID : 55
Codec ID/Hint : MP3
Duration : 22mn 21s
Bit rate mode : Constant
Bit rate : 128 Kbps
Channel(s) : 2 channels
Sampling rate : 44.1 KHz
Compression mode : Lossy
Stream size : 20.5 MiB (8%)
Alignment : Split accross interleaves
Interleave, duration : 40 ms (1.00 video frame)
Interleave, preload duration : 500 ms
Writing library : LAME3.99r
Encoding settings : -m s -V 4 -q 2 -lowpass 17 -b 128

Пример субтитров

139
00:07:18,280 --> 00:07:21,559
Давайте послушаем Вашего
наставника.
140
00:07:22,040 --> 00:07:23,879
Вы можете нам рассказать чуть больше
141
00:07:23,880 --> 00:07:27,479
о стажировке, которую проходит
мадмуазель Келифи?
142
00:07:27,760 --> 00:07:31,479
Она сейчас проходит стажировку
в отельно-ресторанном секторе.
143
00:07:32,280 --> 00:07:33,839
Она нашла работодателя.
144
00:07:33,840 --> 00:07:35,399
Нашла работодателя?
Да.
145
00:07:36,080 --> 00:07:37,639
Ее адвокат может
представить справку.
146
00:07:37,840 --> 00:07:39,079
Да, я Вам её представлю после.
147
00:07:39,080 --> 00:07:41,759
Работодатель предложил ей
сверхурочные часы две недели назад.
148
00:07:42,520 --> 00:07:45,359
Это знак доверия.
Это очень важно.
149
00:07:46,000 --> 00:07:48,599
Ещё недавно она легко поддавалась
чужому влиянию,
150
00:07:48,840 --> 00:07:51,639
но с того времени
она поняла многое.
151
00:07:53,280 --> 00:07:56,199
Я думаю,
она сейчас на правильном пути.
152
00:07:56,600 --> 00:08:00,719
Вы могли бы нам рассказать
о Ваших профессиональных планах
153
00:08:01,400 --> 00:08:04,439
Я планирую работать в баре,
где прохожу стажировку.
154
00:08:04,960 --> 00:08:06,439
Работать в ...?
155
00:08:06,680 --> 00:08:07,879
В баре, в кафе...
156
00:08:08,040 --> 00:08:09,999
Понятно.
В ресторане.
157
00:08:10,200 --> 00:08:12,679
Вы хотите этим заниматься в будущем?
158
00:08:12,680 --> 00:08:13,759
Да.
159
00:08:15,560 --> 00:08:17,959
Это замечательно, что у Вас
этот договор на стажировку.

Скриншоты


[teatrix.ru].t3940.torrent 
Торрент: Зарегистрирован [ 2015-10-07 12:13 ] · 8EFC45DE76AB0BBC626C326C562FBA2C583E2346

Скачать .torrent

Скачать

11 KB

Статус: проверено
Скачан: 0 раз
Размер: 270 MB
terms.php



Быстрый ответ

Имя:

      
Для отправки сообщений необходимо включить JavaScript
Показать сообщения:    

Текущее время: 03-Дек 16:45

Часовой пояс: UTC + 3


Вы можете начинать темы
Вы можете отвечать на сообщения
Вы не можете редактировать свои сообщения
Вы не можете удалять свои сообщения
Вы не можете голосовать в опросах
Вы не можете прикреплять файлы к сообщениям
Вы можете скачивать файлы