Песня механической рыбы (Филипп Юрьев) [2011, Россия, драма, дипломная работа, короткий метр, DVB]


Статистика раздачи [Обновить пиров]
Размер:  394 MB   |    Зарегистрирован:  1 год 1 месяц   |    Скачан:  1 раз

Полного источника не было: 1 месяц 15 дней

 
   
 
 
 

[Цитировать]

Песня механической рыбы- Страна: Россия
Жанр: драма, дипломная работа, короткий метр
Год выпуска: 2011
Продолжительность: 00:30:26
Перевод: Не требуется
Cубтитры: нет
Режиссер: Филипп ЮрьевВ ролях: Юрис Лауциньш, Андрей Шибаршин, Александр Обласов, Алексей Филимонов
Описание: Фильм Мастерской Алексея Учителя, ВГИК.
Письмо, пришедшее в деревню, похороненную в песках, адресованное пожилому рыбаку, приглашает приехать его в город на свадьбу к сыну, которого тот никогда не видел. Искупительное путешествие заканчивается неожиданно.
Доп. информация: Культура DVB-S
Номинация на Гран-при жюри Sundance Film Festival 2013.

Качество видео: DVB
Формат видео: MKV
Видео: MPEG Video 2, 720x576@768x576 (4:3), 25 fps, ~1581 kbps avg, 0.152 bit/pixel
Аудио: MPEG Audio 2, 2 ch, 48 kHz, ~192.00 kbps avg

MediaInfo

ОбщееУникальный идентификатор : 212038221457209973342924012930198944629 (0x9F8513751F7D7B6EBFDF289DE7183B75)Полное имя : E:\My Torrents 2\[apreder]MINI_MOVIES_09\[apreder]MM_Pesni_Mekhanicheskoy_Ryby(2011)DVB.mkvФормат : MatroskaВерсия формата : Version 2Размер файла : 394 МбайтПродолжительность : 30 м.Режим общего битрейта : ПеременныйОбщий поток : 1809 Кбит/секДата кодирования : UTC 2014-09-25 16:58:25Программа кодирования : mkvmerge v7.2.0 ('On Every Street') 64bit built on Sep 13 2014 15:52:10Библиотека кодирования : libebml v1.3.0 + libmatroska v1.4.1
ВидеоИдентификатор : 1Формат : MPEG VideoВерсия формата : Version 2Профиль формата : Main@MainПараметр BVOP формата : НетПараметр матрицы формата : ВыборочнаяИдентификатор кодека : V_MPEG2Идентификатор кодека/Информация : MPEG 1 or 2 VideoПродолжительность : 30 м.Вид битрейта : ПеременныйБитрейт : 1581 Кбит/секШирина : 720 пикселейВысота : 576 пикселейСоотношение сторон : 4:3Режим частоты кадров : ПостоянныйЧастота кадров : 25,000 кадров/секСтандарт вещания : PALЦветовое пространство : YUVСубдискретизация насыщенности : 4:2:0Битовая глубина : 8 битТип развёртки : ЧересстрочнаяПорядок развёртки : Верхнее поле первоеМетод сжатия : С потерямиБит/(Пиксели*Кадры) : 0.152Временной код первого кадра : 00:00:00:00Оригинал временного кода : Group of pictures headerРазмер потока : 344 Мбайт (87%)Default : ДаForced : Нет
АудиоИдентификатор : 2Формат : MPEG AudioВерсия формата : Version 1Профиль формата : Layer 2Идентификатор кодека : A_MPEG/L2Идентификатор кодека/Подсказка : MP2Продолжительность : 30 м.Вид битрейта : ПостоянныйБитрейт : 192 Кбит/секКаналы : 2 каналаЧастота : 48,0 КГцМетод сжатия : С потерямиРазмер потока : 41,8 Мбайт (11%)Язык : RussianDefault : ДаForced : Нет

Скриншот c названием фильма

Скриншоты

Резервные скриншоты

-[1'752]
[teatrix.ru].t3941.torrent 
Торрент: Зарегистрирован [ 2015-10-07 12:13 ] · 6EFF30F574C0B0030C1523BC71F3C520CBCF91C1

Скачать .torrent

Скачать

16 KB

Статус: проверено
Скачан: 1 раз
Размер: 394 MB
terms.php



Быстрый ответ

Имя:

      
Для отправки сообщений необходимо включить JavaScript
Показать сообщения:    

Текущее время: 02-Дек 21:12

Часовой пояс: UTC + 3


Вы можете начинать темы
Вы можете отвечать на сообщения
Вы не можете редактировать свои сообщения
Вы не можете удалять свои сообщения
Вы не можете голосовать в опросах
Вы не можете прикреплять файлы к сообщениям
Вы можете скачивать файлы