Грязная любовь / Dirty Love (Майкл Тринж / Michael Tringe) [2006, США, драма, гей-тема, короткий метр, DVDRip-AVC]


Статистика раздачи [Обновить пиров]
Размер:  72 MB   |    Зарегистрирован:  1 год 2 месяца   |    Скачан:  0 раз

Полного источника не было: Никогда

 
   
 
 
 

[Цитировать]

Грязная любовь
Dirty Love- Страна: США
Жанр: драма, гей-тема, короткий метр
Год выпуска: 2006
Продолжительность: 00:05:54
Перевод: Не требуется
Cубтитры: нет
Оригинальная аудиодорожка: нет диалогов
Режиссер: Майкл Тринж / Michael TringeВ ролях: Дастин Варпнесс / Dustin Varpness (Derik), Д.Е. Матиас / D.T. Matias (Hustler), Мэттью Барри Райан / Matthew Barry Ryan (Scam man)
Описание: На улицах Лос-Анджелеса молодого паренька соблазняет вор-карманник, работающий в паре с подельником и грабящий преимущественно геев. Заподозрив неладное, паренек бросается наутёк…
Доп. информация: Фильм вышел на DVD-сборнике Schuljungs 2 - Fünf schwule Kurzfilme über die erste Liebe (2008). На территории РФ возрастное ограничение 18+.
Участник Outfest Film Festival 2006; Seattle Lesbian & Gay Film Festival 2006; Miami Gay & Lesbian Film Festival 2006; 26th Reeling Film Festival 2007; Melbourne Queer Film Festival 2007.

Качество видео: DVDRip
Формат видео: MKV
Видео: AVC (H.264), 640x384, 25 fps, ~1500 kbps avg, 0.244 bit/pixel
Аудио: AC3, 2 ch, 48 kHz, ~192.00 kbps avg

MediaInfo

Общее
Уникальный идентификатор : 193195227384391860143571655757061236057 (0x91580C1F575EB9BB8C8E55A5E6CD2559)
Полное имя : E:\My Torrents 2\[apreder]MINI_MOVIES_09\[apreder]MM_Dirty_Love(2006)DVDRip.mkv
Формат : Matroska
Версия формата : Version 2
Размер файла : 71,7 Мбайт
Продолжительность : 5 м. 54 с.
Общий поток : 1695 Кбит/сек
Дата кодирования : UTC 2014-09-25 15:01:04
Программа кодирования : mkvmerge v7.2.0 ('On Every Street') 64bit built on Sep 13 2014 15:52:10
Библиотека кодирования : libebml v1.3.0 + libmatroska v1.4.1
Видео
Идентификатор : 1
Формат : AVC
Формат/Информация : Advanced Video Codec
Профиль формата : High@L4.1
Параметр CABAC формата : Да
Параметр ReFrames формата : 16 кадров
Идентификатор кодека : V_MPEG4/ISO/AVC
Продолжительность : 5 м. 54 с.
Битрейт : 1500 Кбит/сек
Ширина : 640 пикселей
Высота : 384 пикселя
Соотношение сторон : 1,667
Режим частоты кадров : Постоянный
Частота кадров : 25,000 кадров/сек
Цветовое пространство : YUV
Субдискретизация насыщенности : 4:2:0
Битовая глубина : 8 бит
Тип развёртки : Прогрессивная
Бит/(Пиксели*Кадры) : 0.244
Размер потока : 62,1 Мбайт (87%)
Библиотека кодирования : x264 core 142 r2431 ac76440
Настройки программы : cabac=1 / ref=16 / deblock=1:-1:-1 / analyse=0x3:0x133 / me=umh / subme=10 / psy=1 / psy_rd=1.00:0.15 / mixed_ref=1 / me_range=24 / chroma_me=1 / trellis=2 / 8x8dct=1 / cqm=0 / deadzone=21,11 / fast_pskip=1 / chroma_qp_offset=-3 / threads=6 / lookahead_threads=1 / sliced_threads=0 / nr=0 / decimate=1 / interlaced=0 / bluray_compat=0 / constrained_intra=0 / bframes=8 / b_pyramid=2 / b_adapt=2 / b_bias=0 / direct=3 / weightb=0 / open_gop=0 / weightp=2 / keyint=250 / keyint_min=25 / scenecut=40 / intra_refresh=0 / rc_lookahead=60 / rc=2pass / mbtree=1 / bitrate=1500 / ratetol=1.0 / qcomp=0.60 / qpmin=0 / qpmax=69 / qpstep=4 / cplxblur=20.0 / qblur=0.5 / vbv_maxrate=62500 / vbv_bufsize=78125 / nal_hrd=none / filler=0 / ip_ratio=1.40 / aq=1:1.00
Default : Да
Forced : Нет
Аудио
Идентификатор : 2
Формат : AC-3
Формат/Информация : Audio Coding 3
Расширение режима : CM (complete main)
Параметр Endianness формата : Big
Идентификатор кодека : A_AC3
Продолжительность : 5 м. 54 с.
Вид битрейта : Постоянный
Битрейт : 192 Кбит/сек
Каналы : 2 канала
Расположение каналов : Front: L R
Частота : 48,0 КГц
Битовая глубина : 16 бит
Метод сжатия : С потерями
Размер потока : 8,12 Мбайт (11%)
Default : Да
Forced : Нет

Скриншот c названием фильма

Скриншоты

Резервные скриншоты

-[1'750]
[teatrix.ru].t3942.torrent 
Торрент: Зарегистрирован [ 2015-10-07 12:13 ] · 070FF204732B65F45964D77A1093C6958903608C

Скачать .torrent

Скачать

12 KB

Статус: проверено
Скачан: 0 раз
Размер: 72 MB
terms.php



Быстрый ответ

Имя:

      
Для отправки сообщений необходимо включить JavaScript
Показать сообщения:    

Текущее время: 11-Дек 12:59

Часовой пояс: UTC + 3


Вы можете начинать темы
Вы можете отвечать на сообщения
Вы не можете редактировать свои сообщения
Вы не можете удалять свои сообщения
Вы не можете голосовать в опросах
Вы не можете прикреплять файлы к сообщениям
Вы можете скачивать файлы