Скамейка в парке / Park Bench (Джим Ли / Jim Le, Эли Бенавидес / Eli Benavidez) [2006, США, мелодрама, гей-тема, короткий метр, IPTVRip-AVC]


Статистика раздачи [Обновить пиров]
Размер:  73 MB   |    Зарегистрирован:  1 год 1 месяц   |    Скачан:  0 раз

Полного источника не было: Никогда

 
   
 
 
 

[Цитировать]

Скамейка в парке
Park Bench- Страна: США
Жанр: мелодрама, гей-тема, короткий метр
Год выпуска: 2006
Продолжительность: 00:06:14
Перевод: Субтитры (ralf124c41+)
Cубтитры: русские
Оригинальная аудиодорожка: музыкальное сопровождениеРежиссер: Джим Ли / Jim Le, Эли Бенавидес / Eli Benavidez (as Eli Cordova)
В ролях: Клейтон Фронинг / Clayton Froning (Mark), Брайан Нюфанг / Brian Neufang (Scott)
Описание: Робкий юноша стремится выразить свои искренние чувства, когда к нему в парке подсаживается другой парень…
Доп. информация: MTS (Manitoba Telecom Services, Canada) IPTV. Фильм входит в телеантологию Hot Pink Shorts (Season 2, Episode 6, 2009), OUTtv Network (Canada). На территории РФ возрастное ограничение 18+.
Участник Toronto Inside Out Gay & Lesbian Film Festival (2007); Paris Gay & Lesbian Film Festival (2007); Arizona International Film Festival (2007); Peoria Film Festival (2007); Sedona International Film Festival (2007).

Качество видео: IPTVRip
Формат видео: MKV
Видео: AVC (H.264), 640x368, 23,976 fps, ~1410 kbps avg, 0.250 bit/pixel
Аудио: AC3, 2 ch, 48 kHz, ~192.00 kbps avg
Формат субтитров: softsub (SRT)
Доп. информация о субтитрах: форсированные

Пример субтитров

100:01:03,088 --> 00:01:07,594СКАМЕЙКА В ПАРКЕ
200:02:09,671 --> 00:02:10,716"Альбатрос"
300:04:01,957 --> 00:04:04,719Пообедаем?
400:04:17,411 --> 00:04:18,140"Альбатрос"
500:04:52,963 --> 00:04:57,166авторы сценария и режиссерыДжим Ли и Эли Кордова
600:05:00,649 --> 00:05:02,905композиторХамдия Аянович
700:05:06,211 --> 00:05:08,815в ролях:Клейтон Фронинг
800:05:09,015 --> 00:05:11,503Брайан Нюфанг
900:05:11,703 --> 00:05:14,528в фильмеСКАМЕЙКА В ПАРКЕ

MediaInfo

Общее
Уникальный идентификатор : 176922418441351767465957706258484106930 (0x851A04B2A6086F508FB98D298D2116B2)
Полное имя : E:\My Torrents 2\[apreder]MINI_MOVIES_09\[apreder]MM_Park_Bench(2006)IPTVRip.mkv
Формат : Matroska
Версия формата : Version 2
Размер файла : 73,0 Мбайт
Продолжительность : 6 м. 14 с.
Общий поток : 1634 Кбит/сек
Дата кодирования : UTC 2014-09-24 18:03:25
Программа кодирования : mkvmerge v7.2.0 ('On Every Street') 64bit built on Sep 13 2014 15:52:10
Библиотека кодирования : libebml v1.3.0 + libmatroska v1.4.1
Видео
Идентификатор : 1
Формат : AVC
Формат/Информация : Advanced Video Codec
Профиль формата : High@L4.1
Параметр CABAC формата : Да
Параметр ReFrames формата : 16 кадров
Идентификатор кодека : V_MPEG4/ISO/AVC
Продолжительность : 6 м. 14 с.
Битрейт : 1410 Кбит/сек
Номинальный битрейт : 1500 Кбит/сек
Ширина : 640 пикселей
Высота : 368 пикселей
Соотношение сторон : 1,739
Режим частоты кадров : Постоянный
Частота кадров : 23,976 кадра/сек
Цветовое пространство : YUV
Субдискретизация насыщенности : 4:2:0
Битовая глубина : 8 бит
Тип развёртки : Прогрессивная
Бит/(Пиксели*Кадры) : 0.250
Размер потока : 63,0 Мбайт (86%)
Библиотека кодирования : x264 core 142 r2431 ac76440
Настройки программы : cabac=1 / ref=16 / deblock=1:-1:-1 / analyse=0x3:0x133 / me=umh / subme=10 / psy=1 / psy_rd=1.00:0.15 / mixed_ref=1 / me_range=24 / chroma_me=1 / trellis=2 / 8x8dct=1 / cqm=0 / deadzone=21,11 / fast_pskip=1 / chroma_qp_offset=-3 / threads=6 / lookahead_threads=1 / sliced_threads=0 / nr=0 / decimate=1 / interlaced=0 / bluray_compat=0 / constrained_intra=0 / bframes=8 / b_pyramid=2 / b_adapt=2 / b_bias=0 / direct=3 / weightb=0 / open_gop=0 / weightp=2 / keyint=240 / keyint_min=23 / scenecut=40 / intra_refresh=0 / rc_lookahead=60 / rc=2pass / mbtree=1 / bitrate=1500 / ratetol=1.0 / qcomp=0.60 / qpmin=0 / qpmax=69 / qpstep=4 / cplxblur=20.0 / qblur=0.5 / vbv_maxrate=62500 / vbv_bufsize=78125 / nal_hrd=none / filler=0 / ip_ratio=1.40 / aq=1:1.00
Default : Да
Forced : Нет
Аудио
Идентификатор : 2
Формат : AC-3
Формат/Информация : Audio Coding 3
Расширение режима : CM (complete main)
Параметр Endianness формата : Big
Идентификатор кодека : A_AC3
Продолжительность : 6 м. 14 с.
Вид битрейта : Постоянный
Битрейт : 192 Кбит/сек
Каналы : 2 канала
Расположение каналов : Front: L R
Частота : 48,0 КГц
Битовая глубина : 16 бит
Метод сжатия : С потерями
Размер потока : 8,58 Мбайт (12%)
Default : Да
Forced : Нет
Текст
Идентификатор : 3
Формат : UTF-8
Идентификатор кодека : S_TEXT/UTF8
Идентификатор кодека/Информация : UTF-8 Plain Text
Язык : Russian
Default : Да
Forced : Нет

Скриншот c названием фильма

Скриншоты

Резервные скриншоты

-[1'749]
[teatrix.ru].t3943.torrent 
Торрент: Зарегистрирован [ 2015-10-07 12:13 ] · 69243FF52DC9C46B8BF7291415C6C67F61B5571E

Скачать .torrent

Скачать

12 KB

Статус: проверено
Скачан: 0 раз
Размер: 73 MB
terms.php



Быстрый ответ

Имя:

      
Для отправки сообщений необходимо включить JavaScript
Показать сообщения:    

Текущее время: 06-Дек 19:01

Часовой пояс: UTC + 3


Вы можете начинать темы
Вы можете отвечать на сообщения
Вы не можете редактировать свои сообщения
Вы не можете удалять свои сообщения
Вы не можете голосовать в опросах
Вы не можете прикреплять файлы к сообщениям
Вы можете скачивать файлы