Соединенные вместе / Связанный / Connected (Натан Бранскилл / Nathan Brunskill) [2008, США, мелодрама, гей-тема, короткий метр, DVDRip-AVC]


Статистика раздачи [Обновить пиров]
Размер:  72 MB   |    Зарегистрирован:  1 год 1 месяц   |    Скачан:  1 раз

Полного источника не было: 4 месяца 27 дней

 
   
 
 
 

[Цитировать]

Соединенные вместе
Connected- Страна: США
Жанр: мелодрама, гей-тема, короткий метр
Год выпуска: 2008
Продолжительность: 00:05:58
Перевод: Не требуется
Cубтитры: нет
Оригинальная аудиодорожка: музыкальное сопровождение
Режиссер: Натан Бранскилл / Nathan BrunskillВ ролях: Дастин Варпнесс / Dustin Varpness (Allen), Майкл Кирби / Michael Kirby (Chris)
Описание: Два одиночества случайно встречаются в городском метро, но счастье будет быстротечно, и обстоятельства разъединят их, хотя пути обоих могут снова неожиданно пересечься…
Доп. информация: Фильм включен в DVD-сборник First Out (Vol. 2) 2008. На территории РФ возрастное ограничение 18+.
Участник ReelHeART International Film Festival 2008; NewFilmmakers Screening Series, New York 2008; Moving Pictures Magazine Short Film Contest 2008.

Качество видео: DVDRip
Формат видео: MKV
Видео: AVC (H.264), 640x352, 23,976 fps, ~1500 kbps avg, 0.278 bit/pixel
Аудио: AC3, 2 ch, 48 kHz, ~192.00 kbps avg

MediaInfo

Общее
Уникальный идентификатор : 190927011762506699209600071075550349171 (0x8FA33475482569578124388AD3AE4773)
Полное имя : E:\My Torrents 2\[apreder]MINI_MOVIES_09\[apreder]MM_Connected(2008)DVDRip.mkv
Формат : Matroska
Версия формата : Version 2
Размер файла : 72,4 Мбайт
Продолжительность : 5 м. 58 с.
Общий поток : 1695 Кбит/сек
Дата кодирования : UTC 2014-09-23 17:13:27
Программа кодирования : mkvmerge v7.2.0 ('On Every Street') 64bit built on Sep 13 2014 15:52:10
Библиотека кодирования : libebml v1.3.0 + libmatroska v1.4.1
Видео
Идентификатор : 1
Формат : AVC
Формат/Информация : Advanced Video Codec
Профиль формата : High@L4.1
Параметр CABAC формата : Да
Параметр ReFrames формата : 16 кадров
Идентификатор кодека : V_MPEG4/ISO/AVC
Продолжительность : 5 м. 58 с.
Битрейт : 1500 Кбит/сек
Ширина : 640 пикселей
Высота : 352 пикселя
Соотношение сторон : 16:9
Режим частоты кадров : Постоянный
Частота кадров : 23,976 кадра/сек
Цветовое пространство : YUV
Субдискретизация насыщенности : 4:2:0
Битовая глубина : 8 бит
Тип развёртки : Прогрессивная
Бит/(Пиксели*Кадры) : 0.278
Размер потока : 62,8 Мбайт (87%)
Библиотека кодирования : x264 core 142 r2431 ac76440
Настройки программы : cabac=1 / ref=16 / deblock=1:-1:-1 / analyse=0x3:0x133 / me=umh / subme=10 / psy=1 / psy_rd=1.00:0.15 / mixed_ref=1 / me_range=24 / chroma_me=1 / trellis=2 / 8x8dct=1 / cqm=0 / deadzone=21,11 / fast_pskip=1 / chroma_qp_offset=-3 / threads=6 / lookahead_threads=1 / sliced_threads=0 / nr=0 / decimate=1 / interlaced=0 / bluray_compat=0 / constrained_intra=0 / bframes=8 / b_pyramid=2 / b_adapt=2 / b_bias=0 / direct=3 / weightb=0 / open_gop=0 / weightp=2 / keyint=240 / keyint_min=23 / scenecut=40 / intra_refresh=0 / rc_lookahead=60 / rc=2pass / mbtree=1 / bitrate=1500 / ratetol=1.0 / qcomp=0.60 / qpmin=0 / qpmax=69 / qpstep=4 / cplxblur=20.0 / qblur=0.5 / vbv_maxrate=62500 / vbv_bufsize=78125 / nal_hrd=none / filler=0 / ip_ratio=1.40 / aq=1:1.00
Default : Да
Forced : Нет
Аудио
Идентификатор : 2
Формат : AC-3
Формат/Информация : Audio Coding 3
Расширение режима : CM (complete main)
Параметр Endianness формата : Big
Идентификатор кодека : A_AC3
Продолжительность : 5 м. 58 с.
Вид битрейта : Постоянный
Битрейт : 192 Кбит/сек
Каналы : 2 канала
Расположение каналов : Front: L R
Частота : 48,0 КГц
Битовая глубина : 16 бит
Метод сжатия : С потерями
Размер потока : 8,20 Мбайт (11%)
Default : Да
Forced : Нет[/pre]

Скриншот c названием фильма

Скриншоты

Резервные скриншоты

-[1'747]
[teatrix.ru].t3944.torrent 
Торрент: Зарегистрирован [ 2015-10-07 12:13 ] · 53E6B2B6A155BBB7FE08724FA637555A182430DA

Скачать .torrent

Скачать

12 KB

Статус: проверено
Скачан: 1 раз
Размер: 72 MB
terms.php



Быстрый ответ

Имя:

      
Для отправки сообщений необходимо включить JavaScript
Показать сообщения:    

Текущее время: 03-Дек 18:36

Часовой пояс: UTC + 3


Вы можете начинать темы
Вы можете отвечать на сообщения
Вы не можете редактировать свои сообщения
Вы не можете удалять свои сообщения
Вы не можете голосовать в опросах
Вы не можете прикреплять файлы к сообщениям
Вы можете скачивать файлы