Париж уснул / Paris qui dort (Рене Клер / René Clair) [1925, Франция, короткий метр, немое кино, фантастика, DVDRip] Sub Rus, Eng


Статистика раздачи [Обновить пиров]
Размер:  597 MB   |    Зарегистрирован:  1 год 2 месяца   |    Скачан:  0 раз

Полного источника не было: Никогда

 
   
 
 
 

[Цитировать]

Париж уснул / Paris qui dort
Страна: Франция
Жанр: короткий метр, немое кино, фантастика
Год выпуска: 1925
Продолжительность: 00:34:27
Перевод: Субтитры (на интертитры)
Cубтитры: русские, английские

Режиссер: Рене Клер / René Clair
В ролях: Анри Роллан, Альбер Прежан, Мадлен Родриг, Марсель Валле
Описание: Смотритель Эйфелевой башни с удивлением обнаруживает, что раскинувшийся у его ног огромный город подвергся какому-то неведомому воздействию: люди словно остолбенели. "Таинственный столбняк" не коснулся только горстки людей, которые в окружении беспомощного люда сбросили с себя все моральные оковы...
Качество видео: DVDRip
Формат видео: AVI
Видео: 624x480 (1.30:1), 23.976 fps, XviD build 73 ~1795 kbps avg, 0.25 bit/pixel
все аудиодороги содержат исключительно музыкальное сопровождение
Аудио: 48 kHz, AC3 Dolby Digital, 1/0 (C) ch, ~192 kbps - Original piano score by Jean Wiener
Аудио: 48 kHz, AC3 Dolby Digital, 2/0 (L,R) ch, ~224 kbps - Score by Michelle Agnes & Nelson Pinton Filho
Аудио: 48 kHz, AC3 Dolby Digital, 2/0 (L,R) ch, ~192 kbps - Electronic soundtrack by Peter Rehberg (2004)

Фрагмент субтитров

12
00:06:11,575 --> 00:06:14,237
В аэропорту Парижа.
13
00:08:03,989 --> 00:08:07,152
"Всё замерло этой ночью...
14
00:08:16,502 --> 00:08:19,232
...кроме меня наверху башни."
15
00:08:21,407 --> 00:08:23,739
"И кроме нас в самолёте."
16
00:09:11,992 --> 00:09:14,790
Вор всегда пригодится.
17
00:10:44,285 --> 00:10:46,913
"Давайте не позволим этому
уничтожить нас!"
18
00:14:18,035 --> 00:14:21,630
"Ручаюсь, что двери любого магазина
распахнутся перед вами...
19
00:14:27,411 --> 00:14:29,845
...и даже Банка Франции!"
20
00:15:27,305 --> 00:15:29,796
Весь Париж принадлежит им.
21
00:17:21,487 --> 00:17:24,320
Но к чему богатство...
22
00:17:45,745 --> 00:17:48,213
...когда оно надоедает?
23
00:21:17,559 --> 00:21:20,050
"Если кто нибудь меня слышит...

MediaInfo

Общее
Полное имя : J:\Paris.qui.dort.1925.dvdrip_[teko]\Paris.qui.dort.1925.dvdrip.avi
Формат : AVI
Формат/Информация : Audio Video Interleave
Размер файла : 597 Мбайт
Продолжительность : 34 м.
Общий поток : 2424 Кбит/сек
Программа кодирования : VirtualDubMod 1.5.10.3 | www.virtualdub-fr.org || (build 2550/release)
Библиотека кодирования : VirtualDubMod build 2550/release
Видео
Идентификатор : 0
Формат : MPEG-4 Visual
Профиль формата : Advanced Simple@L5
Параметр BVOP формата : 2
Параметр QPel формата : Нет
Параметр GMC формата : Без точки перехода
Параметр матрицы формата : Выборочная
Идентификатор кодека : XVID
Идентификатор кодека/Подсказка : XviD
Продолжительность : 34 м.
Битрейт : 1797 Кбит/сек
Ширина : 624 пикселя
Высота : 480 пикселей
Соотношение сторон : 4:3
Частота кадров : 23,976 кадра/сек
Цветовое пространство : YUV
Субдискретизация насыщенности : 4:2:0
Битовая глубина : 8 бит
Тип развёртки : Прогрессивная
Метод сжатия : С потерями
Бит/(Пиксели*Кадры) : 0.250
Размер потока : 443 Мбайт (74%)
Библиотека кодирования : XviD 73
Аудио #1
Идентификатор : 1
Формат : AC-3
Формат/Информация : Audio Coding 3
Расширение режима : CM (complete main)
Параметр Endianness формата : Big
Идентификатор кодека : 2000
Продолжительность : 34 м.
Вид битрейта : Постоянный
Битрейт : 192 Кбит/сек
Каналы : 1 канал
Расположение каналов : Front: C
Частота : 48,0 КГц
Битовая глубина : 16 бит
Метод сжатия : С потерями
Размер потока : 47,3 Мбайт (8%)
Выравнивание : Разделение по промежуткам
Продолжительность промежутка : 42 мс. (1,00 видеокадр)
Время предзагрузки промежутка : 500 мс.
Аудио #2
Идентификатор : 2
Формат : AC-3
Формат/Информация : Audio Coding 3
Расширение режима : CM (complete main)
Параметр Endianness формата : Big
Идентификатор кодека : 2000
Продолжительность : 34 м.
Вид битрейта : Постоянный
Битрейт : 224 Кбит/сек
Каналы : 2 канала
Расположение каналов : Front: L R
Частота : 48,0 КГц
Битовая глубина : 16 бит
Метод сжатия : С потерями
Размер потока : 55,2 Мбайт (9%)
Выравнивание : Разделение по промежуткам
Продолжительность промежутка : 42 мс. (1,00 видеокадр)
Время предзагрузки промежутка : 500 мс.
Аудио #3
Идентификатор : 3
Формат : AC-3
Формат/Информация : Audio Coding 3
Расширение режима : CM (complete main)
Параметр Endianness формата : Big
Идентификатор кодека : 2000
Продолжительность : 34 м.
Вид битрейта : Постоянный
Битрейт : 192 Кбит/сек
Каналы : 2 канала
Расположение каналов : Front: L R
Частота : 48,0 КГц
Битовая глубина : 16 бит
Метод сжатия : С потерями
Размер потока : 47,3 Мбайт (8%)
Выравнивание : Разделение по промежуткам
Продолжительность промежутка : 42 мс. (1,00 видеокадр)
Время предзагрузки промежутка : 500 мс.

Скриншоты

[teatrix.ru].t3951.torrent 
Торрент: Зарегистрирован [ 2015-10-07 12:13 ] · 24125C66F61163D7A3EA249935D2758735DBB560

Скачать .torrent

Скачать

12 KB

Статус: проверено
Скачан: 0 раз
Размер: 597 MB
terms.php



Быстрый ответ

Имя:

      
Для отправки сообщений необходимо включить JavaScript
Показать сообщения:    

Текущее время: 10-Дек 21:34

Часовой пояс: UTC + 3


Вы можете начинать темы
Вы можете отвечать на сообщения
Вы не можете редактировать свои сообщения
Вы не можете удалять свои сообщения
Вы не можете голосовать в опросах
Вы не можете прикреплять файлы к сообщениям
Вы можете скачивать файлы