Антракт / Entr'acte (Рене Клер / René Clair) [1924, Франция, короткий метр, авангард, DVDRip] Sub Rus, eng


Статистика раздачи [Обновить пиров]
Размер:  354 MB   |    Зарегистрирован:  1 год 2 месяца   |    Скачан:  1 раз

Полного источника не было: 1 месяц 16 дней

 
   
 
 
 

[Цитировать]

Антракт / Entr'acte
Страна: Франция
Жанр: короткий метр, авангард
Год выпуска: 1924
Продолжительность: 00:20:07
Перевод: Субтитры (только на вступительные титры)
Cубтитры: русские, английские

Режиссер: Рене Клер / René Clair
В ролях: Эрик Сати, Франсис Пикабиа, Инге Фрис, Жан Бьорлен, Марсель Дюшан, Ман Рэй, Дариус Мийо
Описание: Фильм состоит из двух неравных частей. Первая из них, Пролог — короткая, чуть менее двух минут, проецировалась на экран во время исполнения увертюры балета Эрика Сати «Relâche» (в переводе «Спектакль отменяется» или чаще употребительное название «Антракт»). Вторая часть, Антракт — продолжительностью примерно 18 минут, показывалась в зрительном зале театра во время (или вместо) антракта между двумя актами того же балета. Эти две части, Пролог и Антракт, почти не связанные друг с другом ни по сюжету, ни по стилю, тем не менее в настоящее время соединены автором в один фильм «Антракт» и показываются вместе без перерыва, как единое целое.
Качество видео: DVDRip
Формат видео: AVI
Видео: 624x480 (1.30:1), 23.976 fps, XviD build 73 ~1800 kbps avg, 0.25 bit/pixel
все аудиодороги содержат исключительно музыкальное сопровождение
Аудио: 48 kHz, AC3 Dolby Digital, 2/0 (L,R) ch, ~192 kbps - Score by Arseniy Trofim (2009)
Аудио: 48 kHz, AC3 Dolby Digital, 1/0 (C) ch, ~192 kbps - Original orchestral score by Erik Satie (1967), conducted by Henri Sauguet
Аудио: 48 kHz, AC3 Dolby Digital, 2/0 (L,R) ch, ~256 kbps - Original score in piano reduction

MediaInfo

Общее
Полное имя : J:\Entracte.1924.dvdrip_[teko]\Entracte.1924.dvdrip.avi
Формат : AVI
Формат/Информация : Audio Video Interleave
Размер файла : 354 Мбайт
Продолжительность : 20 м.
Общий поток : 2461 Кбит/сек
Программа кодирования : VirtualDubMod 1.5.10.3 | www.virtualdub-fr.org || (build 2550/release)
Библиотека кодирования : VirtualDubMod build 2550/release
Видео
Идентификатор : 0
Формат : MPEG-4 Visual
Профиль формата : Advanced Simple@L5
Параметр BVOP формата : 2
Параметр QPel формата : Нет
Параметр GMC формата : Без точки перехода
Параметр матрицы формата : Выборочная
Идентификатор кодека : XVID
Идентификатор кодека/Подсказка : XviD
Продолжительность : 20 м.
Битрейт : 1802 Кбит/сек
Ширина : 624 пикселя
Высота : 480 пикселей
Соотношение сторон : 4:3
Частота кадров : 23,976 кадра/сек
Цветовое пространство : YUV
Субдискретизация насыщенности : 4:2:0
Битовая глубина : 8 бит
Тип развёртки : Прогрессивная
Метод сжатия : С потерями
Бит/(Пиксели*Кадры) : 0.251
Размер потока : 259 Мбайт (73%)
Библиотека кодирования : XviD 73
Аудио #1
Идентификатор : 1
Формат : AC-3
Формат/Информация : Audio Coding 3
Расширение режима : CM (complete main)
Параметр Endianness формата : Big
Идентификатор кодека : 2000
Продолжительность : 20 м.
Вид битрейта : Постоянный
Битрейт : 192 Кбит/сек
Каналы : 2 канала
Расположение каналов : Front: L R
Частота : 48,0 КГц
Битовая глубина : 16 бит
Метод сжатия : С потерями
Размер потока : 27,6 Мбайт (8%)
Выравнивание : Разделение по промежуткам
Продолжительность промежутка : 42 мс. (1,00 видеокадр)
Время предзагрузки промежутка : 500 мс.
Аудио #2
Идентификатор : 2
Формат : AC-3
Формат/Информация : Audio Coding 3
Расширение режима : CM (complete main)
Параметр Endianness формата : Big
Идентификатор кодека : 2000
Продолжительность : 20 м.
Вид битрейта : Постоянный
Битрейт : 192 Кбит/сек
Каналы : 1 канал
Расположение каналов : Front: C
Частота : 48,0 КГц
Битовая глубина : 16 бит
Метод сжатия : С потерями
Размер потока : 27,6 Мбайт (8%)
Выравнивание : Разделение по промежуткам
Продолжительность промежутка : 42 мс. (1,00 видеокадр)
Время предзагрузки промежутка : 500 мс.
Аудио #3
Идентификатор : 3
Формат : AC-3
Формат/Информация : Audio Coding 3
Расширение режима : CM (complete main)
Параметр Endianness формата : Big
Идентификатор кодека : 2000
Продолжительность : 20 м.
Вид битрейта : Постоянный
Битрейт : 256 Кбит/сек
Каналы : 2 канала
Расположение каналов : Front: L R
Частота : 48,0 КГц
Битовая глубина : 16 бит
Метод сжатия : С потерями
Размер потока : 36,9 Мбайт (10%)
Выравнивание : Разделение по промежуткам
Продолжительность промежутка : 42 мс. (1,00 видеокадр)
Время предзагрузки промежутка : 500 мс.

Скриншоты

[teatrix.ru].t3952.torrent 
Торрент: Зарегистрирован [ 2015-10-07 12:13 ] · A8CBAB821CAD10DAB865126AE1555C586A5C2E11

Скачать .torrent

Скачать

15 KB

Статус: проверено
Скачан: 1 раз
Размер: 354 MB
terms.php



Быстрый ответ

Имя:

      
Для отправки сообщений необходимо включить JavaScript
Показать сообщения:    

Текущее время: 10-Дек 19:33

Часовой пояс: UTC + 3


Вы можете начинать темы
Вы можете отвечать на сообщения
Вы не можете редактировать свои сообщения
Вы не можете удалять свои сообщения
Вы не можете голосовать в опросах
Вы не можете прикреплять файлы к сообщениям
Вы можете скачивать файлы