Боулинг-киллеры / Bowling Killers (Себастьен Пети / Sebastien Petit) [2012, Бельгия, комедия, черный юмор, короткий метр, DVB] Original (Fre) + Sub (rus)


Статистика раздачи [Обновить пиров]
Размер:  210 MB   |    Зарегистрирован:  1 год 2 месяца   |    Скачан:  0 раз

Полного источника не было: Никогда

 
   
 
 
 

[Цитировать]

Боулинг-киллеры
Bowling Killers- Страна: Бельгия
Жанр: комедия, черный юмор, короткий метр
Год выпуска: 2012
Продолжительность: 00:09:55
Перевод: Субтитры (перевод М.Кузиной, Éclair Group)
Cубтитры: русские
Оригинальная аудиодорожка: французский
Режиссер: Себастьен Пети / Sébastien PetitВ ролях: Стив Дризен / Steve Driesen (Simon), Жеральд Вотья / Gérald Wauthia (Tony), Давид Леклерк / David Leclercq (Le Parisien)
Описание: Симон и Тони местные чемпионы по боулингу, а кроме того – наемные убийцы. И сегодня перед ответственной игрой они должны исполнить один контракт…
Доп. информация: TV5MONDE DVB-S
Номинация на лучшую бельгийскую короткометражку Magritte du cinéma belge 2014. Участник Short Film Corner - Festival de Cannes 2013.

Качество видео: DVB
Формат видео: MKV
Видео: MPEG Video 2, 704x576@1024x576 (16:9), 25 fps, ~2703 kbps avg, 0.267 bit/pixel
Аудио: Французский (MPEG Audio 2, 2 ch, 48 kHz, ~192.00 kbps avg)
Формат субтитров: hardsub (неотключаемые)

MediaInfo

ОбщееУникальный идентификатор : 185868618813050035760828232281810159568 (0x8BD4FE6E3983EEA8A83FE0125F8E47D0)Полное имя : E:\My Torrents 2\[apreder]MINI_MOVIES_09\[apreder]MM_Bowling_Killers(2012)DVB.mkvФормат : MatroskaВерсия формата : Version 2Размер файла : 210 МбайтПродолжительность : 9 м. 55 с.Режим общего битрейта : ПеременныйОбщий поток : 2954 Кбит/секДата кодирования : UTC 2014-09-17 15:06:00Программа кодирования : mkvmerge v7.2.0 ('On Every Street') 64bit built on Sep 13 2014 15:52:10Библиотека кодирования : libebml v1.3.0 + libmatroska v1.4.1
ВидеоИдентификатор : 1Формат : MPEG VideoВерсия формата : Version 2Профиль формата : Main@MainПараметр BVOP формата : НетПараметр матрицы формата : ВыборочнаяИдентификатор кодека : V_MPEG2Идентификатор кодека/Информация : MPEG 1 or 2 VideoПродолжительность : 9 м. 55 с.Вид битрейта : ПеременныйБитрейт : 2703 Кбит/секМаксимальный битрейт : 5170 Кбит/секШирина : 704 пикселяВысота : 576 пикселейСоотношение сторон : 16:9Режим частоты кадров : ПостоянныйЧастота кадров : 25,000 кадров/секСтандарт вещания : PALЦветовое пространство : YUVСубдискретизация насыщенности : 4:2:0Битовая глубина : 8 битТип развёртки : ЧересстрочнаяПорядок развёртки : Верхнее поле первоеМетод сжатия : С потерямиБит/(Пиксели*Кадры) : 0.267Временной код первого кадра : 00:00:00:00Оригинал временного кода : Group of pictures headerРазмер потока : 192 Мбайт (92%)Default : ДаForced : Нет
АудиоИдентификатор : 2Формат : MPEG AudioВерсия формата : Version 1Профиль формата : Layer 2Идентификатор кодека : A_MPEG/L2Идентификатор кодека/Подсказка : MP2Продолжительность : 9 м. 55 с.Вид битрейта : ПостоянныйБитрейт : 192 Кбит/секКаналы : 2 каналаЧастота : 48,0 КГцМетод сжатия : С потерямиРазмер потока : 13,6 Мбайт (7%)Язык : FrenchDefault : ДаForced : Нет

Скриншот c названием фильма

Скриншоты

Резервные скриншоты

-[1'728]
[teatrix.ru].t3953.torrent 
Торрент: Зарегистрирован [ 2015-10-07 12:13 ] · F2CE81B18A7DBC6D5D55459BB8BC2538A30D11EC

Скачать .torrent

Скачать

17 KB

Статус: проверено
Скачан: 0 раз
Размер: 210 MB
terms.php



Быстрый ответ

Имя:

      
Для отправки сообщений необходимо включить JavaScript
Показать сообщения:    

Текущее время: 10-Дек 19:43

Часовой пояс: UTC + 3


Вы можете начинать темы
Вы можете отвечать на сообщения
Вы не можете редактировать свои сообщения
Вы не можете удалять свои сообщения
Вы не можете голосовать в опросах
Вы не можете прикреплять файлы к сообщениям
Вы можете скачивать файлы