Анаис / Anais (Джули Бенегмос / Julie Benegmos) [2013, Франция, драма, короткий метр, DVB] Original (Fre) + Sub (rus)


Статистика раздачи [Обновить пиров]
Размер:  358 MB   |    Зарегистрирован:  1 год 2 месяца   |    Скачан:  0 раз

Полного источника не было: Никогда

 
   
 
 
 

[Цитировать]

Анаис
Anaïs- Страна: Франция
Жанр: драма, короткий метр
Год выпуска: 2013
Продолжительность: 00:14:50
Перевод: Субтитры (перевод И.Рыбкиной, Éclair Group)
Cубтитры: русские
Оригинальная аудиодорожка: французский
Режиссер: Джули Бенегмос / Julie BenegmosВ ролях: Сара Адлер / Sarah Adler (Sophie), Изабель Эрхарт / Isabelle Erhart (Anais)
Описание: Как-то вечером, возвращаясь домой, Софи предложила ночлег случайной невзрачной женщине, спящей у подъезда ее дома. Но этой ночью Софи не сможет сомкнуть глаз из-за беспокойных мыслей: что подвигло ее на столь безумный поступок - пригласить незнакомку в собственный дом?
Доп. информация: TV5MONDE DVB-S
Награды: приз канала TV5 Monde на Paris Courts Devant 2013; номинация на лучшую короткометражку Sacramento Festival of Cinema 2014. Участник Short Film Corner - Cannes Film Festival 2013.

Качество видео: DVB
Формат видео: MKV
Видео: MPEG Video 2, 704x576@1024x576 (16:9), 25 fps, ~3108 kbps avg, 0.307 bit/pixel
Аудио: Французский (MPEG Audio 2, 2 ch, 48 kHz, ~192.00 kbps avg)
Формат субтитров: hardsub (неотключаемые)

MediaInfo

ОбщееУникальный идентификатор : 236074748081518918283667275568408193182 (0xB19A57B78AE48384A68F17EEA190689E)Полное имя : E:\My Torrents 2\[apreder]MINI_MOVIES_09\[apreder]MM_Anais(2013)DVB.mkvФормат : MatroskaВерсия формата : Version 2Размер файла : 358 МбайтПродолжительность : 14 м.Режим общего битрейта : ПеременныйОбщий поток : 3367 Кбит/секДата кодирования : UTC 2014-09-17 14:20:38Программа кодирования : mkvmerge v7.2.0 ('On Every Street') 64bit built on Sep 13 2014 15:52:10Библиотека кодирования : libebml v1.3.0 + libmatroska v1.4.1
ВидеоИдентификатор : 1Формат : MPEG VideoВерсия формата : Version 2Профиль формата : Main@MainПараметр BVOP формата : НетПараметр матрицы формата : ВыборочнаяИдентификатор кодека : V_MPEG2Идентификатор кодека/Информация : MPEG 1 or 2 VideoПродолжительность : 14 м.Вид битрейта : ПеременныйБитрейт : 3108 Кбит/секМаксимальный битрейт : 5885 Кбит/секШирина : 704 пикселяВысота : 576 пикселейСоотношение сторон : 16:9Режим частоты кадров : ПостоянныйЧастота кадров : 25,000 кадров/секСтандарт вещания : PALЦветовое пространство : YUVСубдискретизация насыщенности : 4:2:0Битовая глубина : 8 битТип развёртки : ЧересстрочнаяПорядок развёртки : Верхнее поле первоеМетод сжатия : С потерямиБит/(Пиксели*Кадры) : 0.307Временной код первого кадра : 00:00:00:00Оригинал временного кода : Group of pictures headerРазмер потока : 330 Мбайт (92%)Default : ДаForced : Нет
АудиоИдентификатор : 2Формат : MPEG AudioВерсия формата : Version 1Профиль формата : Layer 2Идентификатор кодека : A_MPEG/L2Идентификатор кодека/Подсказка : MP2Продолжительность : 14 м.Вид битрейта : ПостоянныйБитрейт : 192 Кбит/секКаналы : 2 каналаЧастота : 48,0 КГцМетод сжатия : С потерямиРазмер потока : 20,4 Мбайт (6%)Язык : FrenchDefault : ДаForced : Нет

Скриншот c названием фильма

Скриншоты

Резервные скриншоты

-[1'727]
[teatrix.ru].t3954.torrent 
Торрент: Зарегистрирован [ 2015-10-07 12:13 ] · 0EC04D4536638D06DE566839997E2F236E7A1BF3

Скачать .torrent

Скачать

14 KB

Статус: проверено
Скачан: 0 раз
Размер: 358 MB
terms.php



Быстрый ответ

Имя:

      
Для отправки сообщений необходимо включить JavaScript
Показать сообщения:    

Текущее время: 07-Дек 13:41

Часовой пояс: UTC + 3


Вы можете начинать темы
Вы можете отвечать на сообщения
Вы не можете редактировать свои сообщения
Вы не можете удалять свои сообщения
Вы не можете голосовать в опросах
Вы не можете прикреплять файлы к сообщениям
Вы можете скачивать файлы