Остров Эллис / Ellis Island / Книга Дней / Book Of Days (Мередит Монк / Meredith Monk) [1981, 1989, США, ФРГ, Франция, короткий метр, экспериментальный, DVDRip] + Sub Rus + Original Eng


Статистика раздачи [Обновить пиров]
Размер:  866 MB   |    Зарегистрирован:  1 год 2 месяца   |    Скачан:  0 раз

Полного источника не было: Никогда

 
   
 
 
 

[Цитировать]

Кинематографические работы Мередит Монк
Остров Эллис / Ellis Island
Страна: США, ФРГ
Жанр: короткий метр, экспериментальный
Год выпуска: 1981
Продолжительность: 00:28:14
Перевод: субтитры
Cубтитры: русский
Оригинальная аудиодорожка: английский
Режиссер: Мередит Монк / Meredith Monk
В ролях: исполнители не указаны
Описание: «Остров Эллис» и «Книга Дней» – два оригинальных «фильма для слуха» американского композитора-авангардиста Мередит Монк, основанные на ее песнях.
«Остров Эллис» – это пластически-вокальная зарисовка об острове, через который с конца XIX века проходил самый большой поток иммигрантов в США. Воссозданный «ритуал» приема иммигрантов подается максимально театрализированно.
Книга Дней / Book Of Days
Страна: Франция, США
Жанр: экспериментальный
Год выпуска: 1989
Продолжительность: 01:14:30
Перевод: субтитры
Cубтитры: русский
Оригинальная аудиодорожка: английский
Режиссер: Мередит Монк / Meredith Monk
В ролях:
Роберт Ин/Robert Een, Донна М. Филдс/Donna M. Fields, Уэйн Ханкин/Wayne Hankin, Лэнни Харрисон/Lanny Harrison, Лукас Ховин/Lucas Hoving, Карен Левитас/Karen Levitas, Rob McBrien, Мередит Монк/Meredith Monk, Тоби Ньюмен/Toby Newman
Описание: В «Книге Дней» Мередит Монк снова сценически воссоздает ритуалы ежедневной жизни. На этот раз она показывает быт условного средневекового города, в котором бок о бок живёт сообщество христиан и еврейская диаспора. В средневековые декорации вплетены видéния современности, и на протяжении всего фильма происходит диалог воображаемого прошлого и настоящего: жители средневекового города рассказывают о себе, отвечая на вопросы журналистов, чьи голоса мы слышим за кадром. Роль прорицательницы исполняет сама Мередит Монк.
Доп. информация: Перевод – Abris («Остров Эллис»); Abris и Berlin («Книга Дней»), подготовка субтитров – alex-kin.

Сэмплы

Остров Эллис / Ellis Island
http://multi-up.com/997694
Книга Дней / Book Of Days
http://multi-up.com/996036

Технические данные

Остров Эллис / Ellis Island
Качество видео: DVDRip
Формат видео: AVI
Видео: XviD MPEG-4 at 1691 kbps, 0.28 bit/pixel, 576x432 (1.33:1) at 23.976 fps
Аудио: MPEG Layer 3 at 103.55 kbps, 2 ch, 48 kHz
Книга Дней / Book Of Days
Качество видео: DVDRip
Формат видео: AVI
Видео: XviD MPEG-4 at 797 kbps, 0.11 bit/pixel, 640x480 (1.33:1) at 23.976 fps
Аудио: MPEG Layer 3 at 129.22 kbps, 2 ch, 48 kHz

Субтитры

Формат субтитров: softsub (SRT)
Фрагмент субтитров:
Остров Эллис / Ellis Island
16
00:13:44,704 --> 00:13:49,109
Это здание было построено
более 80 лет назад.
17
00:13:50,777 --> 00:13:56,182
С тех пор через эти двери прошло
от 12 до 60 миллионов людей.
18
00:14:01,556 --> 00:14:05,961
Остров занимает
27 с половиной акра земли.
19
00:14:07,323 --> 00:14:09,908
На нем стоит 33 здания,
20
00:14:10,223 --> 00:14:14,908
которые занимают площадь
в 182 750 квадратных метра.
21
00:14:19,457 --> 00:14:26,582
Здесь для специального осмотра
размещались 50 % всех приезжих.
22
00:14:29,642 --> 00:14:35,412
Более 280 000 человек получили отказ
на въезд и были отправлены назад.
23
00:14:41,056 --> 00:14:44,871
За один день,
17 апреля 1907-го года,
24
00:14:45,505 --> 00:14:51,025
через остров прошло
11 700 человек.
25
00:16:46,412 --> 00:16:48,992
Контейнер для еды.
26
00:16:51,811 --> 00:16:54,421
Контейнер для еды.
27
00:16:58,838 --> 00:17:01,648
Контейнер для еды.
28
00:17:06,286 --> 00:17:09,661
Пылесос.
29
00:17:17,381 --> 00:17:19,291
Пылесос.
30
00:17:20,393 --> 00:17:23,213
Эмпайр-стейт-билдинг.
31
00:17:28,339 --> 00:17:30,769
Микроволновка.
32
00:17:36,795 --> 00:17:37,955
Кусачки.
33
00:17:40,096 --> 00:17:41,256
Кусачки.
34
00:17:43,311 --> 00:17:44,471
Кусачки.
35
00:17:49,642 --> 00:17:50,802
Кусачки.
36
00:17:54,235 --> 00:17:55,395
Кусачки.
Книга Дней / Book Of Days
150
00:24:08,154 --> 00:24:09,629
Как вас зовут, брат?
151
00:24:09,857 --> 00:24:11,017
Йоханес.
152
00:26:08,238 --> 00:26:09,908
Аминь.
153
00:26:21,002 --> 00:26:22,412
Аминь.
154
00:26:50,765 --> 00:26:52,060
Передайте, пожалуйста, соль.
155
00:26:52,326 --> 00:26:53,621
Пожалуйста.
156
00:26:55,003 --> 00:26:58,763
Не давайте еду собаке.
Вы снова дали ей еду?
157
00:28:55,400 --> 00:28:57,730
Ваше имя?
158
00:28:57,880 --> 00:28:59,875
Меня зовут Яков бен Абрам.
159
00:29:00,420 --> 00:29:01,985
Вы родились в этом городе?
160
00:29:02,879 --> 00:29:05,104
Да, это мой родной город.
161
00:29:06,122 --> 00:29:07,957
Кто построил дом,
в котором вы живете?
162
00:29:09,177 --> 00:29:10,427
Я не знаю, это очень старый дом,
163
00:29:10,700 --> 00:29:12,895
его построили задолго до меня.
164
00:29:13,713 --> 00:29:15,323
Кто живет с вами в этом доме?
165
00:29:16,406 --> 00:29:17,926
Я живу с моими дочерьми
166
00:29:18,085 --> 00:29:19,270
и их мужьями, конечно же,
167
00:29:19,626 --> 00:29:21,716
и с их детьми, моими внуками.
168
00:29:22,331 --> 00:29:25,706
Моя жена, да покоится ее душа
с миром, умерла много лет назад.
169
00:29:29,804 --> 00:29:31,549
Чем вы занимаетесь?
170
00:29:32,296 --> 00:29:34,356
Я был купцом.

MediaInfo

Остров Эллис / Ellis Island
Формат : AVI
Формат/Информация : Audio Video Interleave
Размер файла : 365 Мбайт
Продолжительность : 28 м.
Общий поток : 1809 Кбит/сек
Программа кодирования : VirtualDubMod 1.5.4.1 (build 2178/release)
Библиотека кодирования : VirtualDubMod build 2178/release
Видео
Идентификатор : 0
Формат : MPEG-4 Visual
Профиль формата : Simple@L3
Параметр BVOP формата : Нет
Параметр QPel формата : Нет
Параметр GMC формата : Без точки перехода
Параметр матрицы формата : Default (H.263)
Идентификатор кодека : XVID
Идентификатор кодека/Подсказка : XviD
Продолжительность : 28 м.
Битрейт : 1692 Кбит/сек
Ширина : 576 пикс.
Высота : 432 пикс.
Соотношение сторон : 4:3
Частота кадров : 23,976 кадр/сек
Цветовое пространство : YUV
Подвыборка цветности : 4:2:0
Битовая глубина : 8 бит
Тип развёртки : Прогрессивная
Метод сжатия : С потерями
Бит/(Пиксели*Кадры) : 0.284
Размер потока : 342 Мбайт (94%)
Библиотека кодирования : XviD 1.2.0.dev47 (UTC 2006-11-01)
Аудио
Идентификатор : 1
Формат : MPEG Audio
Версия формата : Version 1
Профиль формата : Layer 3
Режим : Joint stereo
Расширение режима : MS Stereo
Идентификатор кодека : 55
Идентификатор кодека/Подсказка : MP3
Продолжительность : 28 м.
Вид битрейта : Переменный
Битрейт : 104 Кбит/сек
Номинальный битрейт : 128 Кбит/сек
Канал(ы) : 2 канала(ов)
Частота : 48,0 КГц
Метод сжатия : С потерями
Размер потока : 20,9 Мбайт (6%)
Выравнивание : Соединение по промежуткам
Продолжительность промежутка : 24 мс. (0,58 видеокадр)
Время предзагрузки промежутка : 465 ms
Библиотека кодирования : LAME3.97
Настройки программы : -m j -V 4 -q 2 -lowpass 17 --abr 128
Книга Дней / Book Of Days
Формат : AVI
Формат/Информация : Audio Video Interleave
Размер файла : 501 Мбайт
Продолжительность : 1 ч. 14 м.
Общий поток : 940 Кбит/сек
Программа кодирования : VirtualDubMod 1.5.4.1 (build 2178/release)
Библиотека кодирования : VirtualDubMod build 2178/release
Видео
Идентификатор : 0
Формат : MPEG-4 Visual
Профиль формата : Advanced Simple@L5
Параметр BVOP формата : 1
Параметр QPel формата : Нет
Параметр GMC формата : Без точки перехода
Параметр матрицы формата : Default (H.263)
Режим смешивания : Сжатый битовый поток
Идентификатор кодека : XVID
Идентификатор кодека/Подсказка : XviD
Продолжительность : 1 ч. 14 м.
Битрейт : 798 Кбит/сек
Ширина : 640 пикс.
Высота : 480 пикс.
Соотношение сторон : 4:3
Частота кадров : 23,976 кадр/сек
Цветовое пространство : YUV
Подвыборка цветности : 4:2:0
Битовая глубина : 8 бит
Тип развёртки : Прогрессивная
Метод сжатия : С потерями
Бит/(Пиксели*Кадры) : 0.108
Размер потока : 425 Мбайт (85%)
Библиотека кодирования : XviD 1.2.0.dev47 (UTC 2006-11-01)
Аудио
Идентификатор : 1
Формат : MPEG Audio
Версия формата : Version 1
Профиль формата : Layer 3
Режим : Joint stereo
Расширение режима : MS Stereo
Идентификатор кодека : 55
Идентификатор кодека/Подсказка : MP3
Продолжительность : 1 ч. 14 м.
Вид битрейта : Переменный
Битрейт : 129 Кбит/сек
Номинальный битрейт : 160 Кбит/сек
Канал(ы) : 2 канала(ов)
Частота : 48,0 КГц
Метод сжатия : С потерями
Размер потока : 68,9 Мбайт (14%)
Выравнивание : Соединение по промежуткам
Продолжительность промежутка : 24 мс. (0,58 видеокадр)
Время предзагрузки промежутка : 389 ms
Библиотека кодирования : LAME3.97
Настройки программы : -m j -V 4 -q 2 -lowpass 17.5 --abr 160

Скриншоты c названиями фильмов

Остров Эллис / Ellis Island

Книга Дней / Book Of Days

Скриншоты

Остров Эллис / Ellis Island






Книга Дней / Book Of Days





[teatrix.ru].t3955.torrent 
Торрент: Зарегистрирован [ 2015-10-07 12:13 ] · 48775C9183831B1FC50F4E14402E12B88D81D72C

Скачать .torrent

Скачать

35 KB

Статус: проверено
Скачан: 0 раз
Размер: 866 MB
terms.php



Быстрый ответ

Имя:

      
Для отправки сообщений необходимо включить JavaScript
Показать сообщения:    

Текущее время: 10-Дек 06:03

Часовой пояс: UTC + 3


Вы можете начинать темы
Вы можете отвечать на сообщения
Вы не можете редактировать свои сообщения
Вы не можете удалять свои сообщения
Вы не можете голосовать в опросах
Вы не можете прикреплять файлы к сообщениям
Вы можете скачивать файлы