Взаперти / Intus (Гари Сегерс / Gary Seghers) [2013, Бельгия, драма, сюрреализм, короткий метр, DVB] Original (Fre) + Sub (rus)


Статистика раздачи [Обновить пиров]
Размер:  260 MB   |    Зарегистрирован:  1 год 2 месяца   |    Скачан:  0 раз

Полного источника не было: Никогда

 
   
 
 
 

[Цитировать]

Взаперти
Intus- Страна: Бельгия
Жанр: драма, сюрреализм, короткий метр
Год выпуска: 2013
Продолжительность: 00:12:05
Перевод: Субтитры (перевод М. Лабори, Éclair Group)
Cубтитры: русские
Оригинальная аудиодорожка: французский
Режиссер: Гари Сегерс / Gary SeghersВ ролях: Жереми Ренье / Jérémie Renier (L'homme), Лиза Дебош / Lisa Debauche (Nathalie)
Описание: Бывает, что люди прячутся от реальности в вымышленный мир. Но что, если вымысел вдруг обрушивается на нас и становится реальностью?... Как в этом фильме, где мужчина просыпается замурованным в комнате, а единственная связь с внешним миром – это телевизор и испорченный телефон… Какие демоны прошлого скрываются там, за стенами?...
Доп. информация: TV5MONDE DVB-S
Награды: номинация на лучшую короткометражку Fantasporto 2014; приз за лучшую короткометражку Le Court en dit Long (Paris) 2014; приз за лучшую короткометражку CinemAvvenire Video Festival (Rome) 2014.

Качество видео: DVB
Формат видео: MKV
Видео: MPEG Video 2, 704x576@1024x576 (16:9), 25 fps, ~2749 kbps avg, 0.238 bit/pixel
Аудио: Французский (MPEG Audio 2, 2 ch, 48 kHz, ~192.00 kbps avg)
Формат субтитров: hardsub (неотключаемые)

MediaInfo

ОбщееУникальный идентификатор : 206189618386981776362662288000507565737 (0x9B1EAD10207A9A95800338733EA9D6A9)Полное имя : E:\My Torrents 2\[apreder]MINI_MOVIES_09\[apreder]MM_Intus(2013)DVB.mkvФормат : MatroskaВерсия формата : Version 2Размер файла : 260 МбайтПродолжительность : 12 м.Режим общего битрейта : ПеременныйОбщий поток : 3001 Кбит/секДата кодирования : UTC 2014-09-08 15:08:59Программа кодирования : mkvmerge v7.1.0 ('Good Love') 64bit built on Jul 27 2014 13:06:55Библиотека кодирования : libebml v1.3.0 + libmatroska v1.4.1
ВидеоИдентификатор : 1Формат : MPEG VideoВерсия формата : Version 2Профиль формата : Main@MainПараметр BVOP формата : НетПараметр матрицы формата : ВыборочнаяИдентификатор кодека : V_MPEG2Идентификатор кодека/Информация : MPEG 1 or 2 VideoПродолжительность : 12 м.Вид битрейта : ПеременныйБитрейт : 2749 Кбит/секМаксимальный битрейт : 6674 Кбит/секШирина : 704 пикселяВысота : 576 пикселейСоотношение сторон : 16:9Режим частоты кадров : ПостоянныйЧастота кадров : 25,000 кадров/секСтандарт вещания : PALЦветовое пространство : YUVСубдискретизация насыщенности : 4:2:0Битовая глубина : 8 битТип развёртки : ЧересстрочнаяПорядок развёртки : Верхнее поле первоеМетод сжатия : С потерямиБит/(Пиксели*Кадры) : 0.271Временной код первого кадра : 00:00:00:00Оригинал временного кода : Group of pictures headerРазмер потока : 238 Мбайт (92%)Default : ДаForced : Нет
АудиоИдентификатор : 2Формат : MPEG AudioВерсия формата : Version 1Профиль формата : Layer 2Идентификатор кодека : A_MPEG/L2Идентификатор кодека/Подсказка : MP2Продолжительность : 12 м.Вид битрейта : ПостоянныйБитрейт : 192 Кбит/секКаналы : 2 каналаЧастота : 48,0 КГцМетод сжатия : С потерямиРазмер потока : 16,6 Мбайт (6%)Язык : FrenchDefault : ДаForced : Нет

Скриншот c названием фильма

Скриншоты

Резервные скриншоты

-[1'706]
[teatrix.ru].t3956.torrent 
Торрент: Зарегистрирован [ 2015-10-07 12:13 ] · 126E1971BAD2CA13EC70475E51456332CCA1B29E

Скачать .torrent

Скачать

11 KB

Статус: проверено
Скачан: 0 раз
Размер: 260 MB
terms.php



Быстрый ответ

Имя:

      
Для отправки сообщений необходимо включить JavaScript
Показать сообщения:    

Текущее время: 10-Дек 19:40

Часовой пояс: UTC + 3


Вы можете начинать темы
Вы можете отвечать на сообщения
Вы не можете редактировать свои сообщения
Вы не можете удалять свои сообщения
Вы не можете голосовать в опросах
Вы не можете прикреплять файлы к сообщениям
Вы можете скачивать файлы