Множественность / Plurality (Деннис Лю / Dennis Liu) [2012, США, короткометражка, фантастика, боевик, триллер, WEB-DLRip] VO Александр Райдер


Статистика раздачи [Обновить пиров]
Размер:  320 MB   |    Зарегистрирован:  1 год 2 месяца   |    Скачан:  0 раз

Полного источника не было: Никогда

 
   
 
 
 

[Цитировать]

Множественность / Plurality
Страна: США
Жанр: короткометражка, фантастика, боевик, триллер
Год выпуска: 2012
Продолжительность: 00:14:16
Перевод: одноголосый закадровый (Александр Райдер)
Cубтитры: нет
Режиссер: Деннис Лю / Dennis Liu
В ролях: Джеффри Ниссани, Саманта Стрелитц, Джон Ди Доменико и др.
Описание:
Создатели фильма демонстрируют нам пример тоталитарного государства будущего, когда быстрая идентификация по ДНК позволяет отказаться от огромного количества атрибутов, открывая все необходимые двери, оплачивая счета, снимая с сигнализации автомобили и много чего еще. Но есть одна проблема. Все это время ваши передвижения и действия фиксируются. Это позволило практически истребить преступность, но не оставило шанса на приватность никому.
Качество видео: WEB-DLRip
Формат видео: AVI
Видео: 1280x720 (1.78:1), 23.976 fps, XviD build 64, 2936 kbps avg
Аудио: 48 kHz, MPEG Layer 3, 2 ch, 192.00 kbps

MediaInfo

Формат : AVI
Формат/Информация : Audio Video Interleave
Размер файла : 320 Мбайт
Продолжительность : 14 м.
Общий поток : 3138 Кбит/сек
Программа кодирования : VirtualDubMod 1.5.10.2 (build 2540/release)
Библиотека кодирования : VirtualDubMod build 2540/release
Видео
Идентификатор : 0
Формат : xvid
Идентификатор кодека : xvid
Продолжительность : 14 м.
Битрейт : 2937 Кбит/сек
Ширина : 1280 пикселей
Высота : 720 пикселей
Соотношение сторон : 16:9
Частота кадров : 23,976 кадра/сек
Бит/(Пиксели*Кадры) : 0.133
Размер потока : 300 Мбайт (94%)
Аудио
Идентификатор : 1
Формат : MPEG Audio
Версия формата : Version 1
Профиль формата : Layer 3
Идентификатор кодека : 55
Идентификатор кодека/Подсказка : MP3
Продолжительность : 14 м.
Вид битрейта : Постоянный
Битрейт : 192 Кбит/сек
Каналы : 2 канала
Частота : 48,0 КГц
Метод сжатия : С потерями
Размер потока : 19,6 Мбайт (6%)
Выравнивание : Соединение по промежуткам
Продолжительность промежутка : 42 мс. (1,00 видеокадр)
Время предзагрузки промежутка : 504 мс.
Библиотека кодирования : LAME3.98
Настройки программы : -m s -V 4 -q 0 -lowpass 18.6 -b 192

Скриншот c названием фильма

Скриншоты

[teatrix.ru].t3957.torrent 
Торрент: Зарегистрирован [ 2015-10-07 12:13 ] · 6E52DD48DE2840EA09BFAC38A2B7826D22D6A22C

Скачать .torrent

Скачать

13 KB

Статус: проверено
Скачан: 0 раз
Размер: 320 MB
terms.php



Быстрый ответ

Имя:

      
Для отправки сообщений необходимо включить JavaScript
Показать сообщения:    

Текущее время: 10-Дек 04:13

Часовой пояс: UTC + 3


Вы можете начинать темы
Вы можете отвечать на сообщения
Вы не можете редактировать свои сообщения
Вы не можете удалять свои сообщения
Вы не можете голосовать в опросах
Вы не можете прикреплять файлы к сообщениям
Вы можете скачивать файлы