Обстоятельства / Circumstances (Марко Сангес / Marco Sanges) [2008, Великобритания, экспериментальный, сюрреализм, музыкальный, короткий метр, SATRip-AVC]


Статистика раздачи [Обновить пиров]
Размер:  122 MB   |    Зарегистрирован:  1 год 2 месяца   |    Скачан:  0 раз

Полного источника не было: Никогда

 
   
 
 
 

[Цитировать]

Обстоятельства
Circumstances- Страна: Великобритания
Жанр: экспериментальный, сюрреализм, музыкальный, короткий метр
Год выпуска: 2008
Продолжительность: 00:06:32
Перевод: Субтитры (ralf124c41+)
Cубтитры: русские
Оригинальная аудиодорожка: музыкальный фон
Режиссер: Марко Сангес / Marco SangesВ ролях: Альберто Бона / Alberto Bona (Salvador Dalí), Дэвид Гант / David Gant (Casanova), Роз МакКатчен / Roz McCutcheon (Aristocrat Lady), Дэвид Бретт / David Brett (Chess Player), Алекс Лян / Alex Liang (Uomo Bombetta), Маловьер / Maloviere (Old Brian Jones), Доун Уилкинсон / Dawn Wilkinson (Caterina Capretta)
Описание: Известный итальянский фотограф Марко Сангес, работающий на Vogue Italia, Elle, Dolce&Gabbana, Sunday Telegraph, поставил эксперимент – на основе фотографий из своего фотоальбома "Circumstances" (2004) он попытался соединить образы прошлого и настоящего в стройное музыкальное произведение.
Известные исторические персонажи от Казановы до Сальвадора Дали объединены в сюрреалистический мир фантазии, величия и драмы...
Доп. информация: Награды: приз за лучший арт-фильм Portobello Film and Video Festival 2008; приз "Песочные часы" за лучший экспериментальный фильм Фестиваля "Открытое кино" в Санкт-Петербурге 2009.

Качество видео: SATRip
Формат видео: MKV
Видео: AVC (H.264), 640x352 (16:9), 25 fps, ~2400 kbps avg, 0.426 bit/pixel
Аудио: AC3, 2 ch, 44,1 kHz, ~192.00 kbps avg
Формат субтитров: softsub (SRT)
Доп. информация о субтитрах: форсированные

Субтитры

100:00:00,966 --> 00:00:02,464Приз за лучший арт-фильмКинофестиваля "Портобелло"
200:00:06,963 --> 00:00:08,042Марко Сангеспредставляет
300:00:12,272 --> 00:00:14,415ОБСТОЯТЕЛЬСТВА
400:05:09,553 --> 00:05:13,007...я так и не решу, являются ли моисны воплощением моих помыслов,
500:05:13,207 --> 00:05:18,180или мои помыслы результатоммоих снов. (Д.Г.Лоуренс)

MediaInfo

Общее
Уникальный идентификатор : 195981633560282577645303466924825682274 (0x9370B08DB6818C70B785B0E80EE4A162)
Полное имя : E:\My Torrents 2\[apreder]MINI_MOVIES_09\[apreder]MM_Circumstances(2008).mkv
Формат : Matroska
Версия формата : Version 2
Размер файла : 122 Мбайт
Продолжительность : 6 м. 32 с.
Общий поток : 2600 Кбит/сек
Дата кодирования : UTC 2014-09-07 11:51:07
Программа кодирования : mkvmerge v7.1.0 ('Good Love') 64bit built on Jul 27 2014 13:06:55
Библиотека кодирования : libebml v1.3.0 + libmatroska v1.4.1
Видео
Идентификатор : 1
Формат : AVC
Формат/Информация : Advanced Video Codec
Профиль формата : High@L4.1
Параметр CABAC формата : Да
Параметр ReFrames формата : 16 кадров
Идентификатор кодека : V_MPEG4/ISO/AVC
Продолжительность : 6 м. 32 с.
Битрейт : 2400 Кбит/сек
Ширина : 640 пикселей
Высота : 352 пикселя
Соотношение сторон : 16:9
Режим частоты кадров : Постоянный
Частота кадров : 25,000 кадров/сек
Цветовое пространство : YUV
Субдискретизация насыщенности : 4:2:0
Битовая глубина : 8 бит
Тип развёртки : Прогрессивная
Бит/(Пиксели*Кадры) : 0.426
Размер потока : 110 Мбайт (91%)
Библиотека кодирования : x264 core 142 r2431 ac76440
Настройки программы : cabac=1 / ref=16 / deblock=1:-1:-1 / analyse=0x3:0x133 / me=umh / subme=10 / psy=1 / psy_rd=1.00:0.15 / mixed_ref=1 / me_range=24 / chroma_me=1 / trellis=2 / 8x8dct=1 / cqm=0 / deadzone=21,11 / fast_pskip=1 / chroma_qp_offset=-3 / threads=6 / lookahead_threads=1 / sliced_threads=0 / nr=0 / decimate=1 / interlaced=0 / bluray_compat=0 / constrained_intra=0 / bframes=8 / b_pyramid=2 / b_adapt=2 / b_bias=0 / direct=3 / weightb=0 / open_gop=0 / weightp=2 / keyint=250 / keyint_min=25 / scenecut=40 / intra_refresh=0 / rc_lookahead=60 / rc=2pass / mbtree=1 / bitrate=2400 / ratetol=1.0 / qcomp=0.60 / qpmin=0 / qpmax=69 / qpstep=4 / cplxblur=20.0 / qblur=0.5 / vbv_maxrate=62500 / vbv_bufsize=78125 / nal_hrd=none / filler=0 / ip_ratio=1.40 / aq=1:1.00
Default : Да
Forced : Нет
Аудио
Идентификатор : 2
Формат : AC-3
Формат/Информация : Audio Coding 3
Расширение режима : CM (complete main)
Параметр Endianness формата : Big
Идентификатор кодека : A_AC3
Продолжительность : 6 м. 32 с.
Вид битрейта : Постоянный
Битрейт : 192 Кбит/сек
Каналы : 2 канала
Расположение каналов : Front: L R
Частота : 44,1 КГц
Битовая глубина : 16 бит
Метод сжатия : С потерями
Размер потока : 8,97 Мбайт (7%)
Default : Да
Forced : Нет
Текст
Идентификатор : 3
Формат : UTF-8
Идентификатор кодека : S_TEXT/UTF8
Идентификатор кодека/Информация : UTF-8 Plain Text
Язык : Russian
Default : Да
Forced : Нет

Скриншот c названием фильма

Скриншоты

Резервные скриншоты

-[1'703]
[teatrix.ru].t3958.torrent 
Торрент: Зарегистрирован [ 2015-10-07 12:13 ] · 607262835EBDAEA100CAE238FAA739CC545A822F

Скачать .torrent

Скачать

19 KB

Статус: проверено
Скачан: 0 раз
Размер: 122 MB
terms.php



Быстрый ответ

Имя:

      
Для отправки сообщений необходимо включить JavaScript
Показать сообщения:    

Текущее время: 08-Дек 07:05

Часовой пояс: UTC + 3


Вы можете начинать темы
Вы можете отвечать на сообщения
Вы не можете редактировать свои сообщения
Вы не можете удалять свои сообщения
Вы не можете голосовать в опросах
Вы не можете прикреплять файлы к сообщениям
Вы можете скачивать файлы