Написано Сергеем Довлатовым (Роман Либеров) [2012, Россия, документально-анимационный, биографический, DVB]


Статистика раздачи [Обновить пиров]
Размер:  1.22 GB   |    Зарегистрирован:  1 год 1 месяц   |    Скачан:  1 раз

Полного источника не было: 2 месяца 28 дней

 
   
 
 
 

[Цитировать]

Написано Сергеем Довлатовым- Страна: Россия
Жанр: документально-анимационный, биографический
Год выпуска: 2012
Продолжительность: 00:51:14
Перевод: Не требуется
Cубтитры: нет
Режиссер: Роман ЛиберовВ ролях: Елена Довлатова, Катя Довлатова, Сергей Пускепалис, Данил Щебланов, Евгений Дятлов, Светлана Камынина
Описание: Всё, что имеет значение для человека Сергея Довлатова, так или иначе написано писателем Сергеем Довлатовым...
Что? Из фрагментов произведений, писем, интервью, редакторских колонок составлен рассказ о живом человеке. В итоге, получается рассказ Довлатова о себе самом. А кто может рассказать о Довлатове лучше?
Имена. Съемки кинофильма проводились в республике Коми, Нью-Йорке, Таллинне и Пушкинских Горах. Монологи и авторский текст озвучивает Сергей Пускепалис. Значительную помощь при создании картины оказали Екатерина и Елена Довлатовы. Музыкальное сопровождение — группа Billy’s Band. (анонс канала "Время: далекое и близкое")
Доп. информация: "Время: далекое и близкое" DVB-S.
Участник внеконкурсной программы IV Всероссийского фестиваля короткометражного кино "PROвзгляд" (Череповец) 2013.

Качество видео: DVB
Формат видео: MKV
Видео: MPEG Video 2, 720x576@768x576 (4:3), 25 fps, ~3139 kbps avg, 0.303 bit/pixel
Аудио: MPEG Audio 2, 2 ch, 48 kHz, ~192.00 kbps avg

MediaInfo

ОбщееУникальный идентификатор : 200343549848386295258744517284603997409 (0x96B8C3A16ADC35E18995ACE7551DACE1)Полное имя : E:\My Torrents 2\[apreder]Napisano_Sergeyem_Dovlatovym(2012)DVB.mkvФормат : MatroskaВерсия формата : Version 2Размер файла : 1,22 ГбайтПродолжительность : 51 м.Режим общего битрейта : ПеременныйОбщий поток : 3399 Кбит/секДата кодирования : UTC 2014-09-04 14:18:58Программа кодирования : mkvmerge v7.1.0 ('Good Love') 64bit built on Jul 27 2014 13:06:55Библиотека кодирования : libebml v1.3.0 + libmatroska v1.4.1
ВидеоИдентификатор : 1Формат : MPEG VideoВерсия формата : Version 2Профиль формата : Main@MainПараметр BVOP формата : НетПараметр матрицы формата : ВыборочнаяИдентификатор кодека : V_MPEG2Идентификатор кодека/Информация : MPEG 1 or 2 VideoПродолжительность : 51 м.Вид битрейта : ПеременныйБитрейт : 3139 Кбит/секШирина : 720 пикселейВысота : 576 пикселейСоотношение сторон : 4:3Режим частоты кадров : ПостоянныйЧастота кадров : 25,000 кадров/секСтандарт вещания : PALЦветовое пространство : YUVСубдискретизация насыщенности : 4:2:0Битовая глубина : 8 битТип развёртки : ЧересстрочнаяПорядок развёртки : Верхнее поле первоеМетод сжатия : С потерямиБит/(Пиксели*Кадры) : 0.303Временной код первого кадра : 00:00:00:00Оригинал временного кода : Group of pictures headerРазмер потока : 1,12 Гбайт (92%)Default : ДаForced : Нет
АудиоИдентификатор : 2Формат : MPEG AudioВерсия формата : Version 1Профиль формата : Layer 2Идентификатор кодека : A_MPEG/L2Идентификатор кодека/Подсказка : MP2Продолжительность : 51 м.Вид битрейта : ПостоянныйБитрейт : 192 Кбит/секКаналы : 2 каналаЧастота : 48,0 КГцМетод сжатия : С потерямиРазмер потока : 70,4 Мбайт (6%)Язык : RussianDefault : ДаForced : Нет

Скриншот c названием фильма

Скриншоты


Резервные скриншоты


-[1'691]
[teatrix.ru].t3959.torrent 
Торрент: Зарегистрирован [ 2015-10-07 12:13 ] · 417BA50C97F98FA172A53DDBD940D2DB909398BC

Скачать .torrent

Скачать

13 KB

Статус: проверено
Скачан: 1 раз
Размер: 1.22 GB
terms.php



Быстрый ответ

Имя:

      
Для отправки сообщений необходимо включить JavaScript
Показать сообщения:    

Текущее время: 04-Дек 02:56

Часовой пояс: UTC + 3


Вы можете начинать темы
Вы можете отвечать на сообщения
Вы не можете редактировать свои сообщения
Вы не можете удалять свои сообщения
Вы не можете голосовать в опросах
Вы не можете прикреплять файлы к сообщениям
Вы можете скачивать файлы