Первые шаги / Premiers pas / First Steps (Грегори Лекок / Gregory Lecocq) [2012, Бельгия, драма, короткий метр, DVB] Original (Fre) + Sub (rus)


Статистика раздачи [Обновить пиров]
Размер:  551 MB   |    Зарегистрирован:  1 год 1 месяц   |    Скачан:  1 раз

Полного источника не было: 24 дня

 
   
 
 
 

[Цитировать]

Первые шаги
Premiers pas- Страна: Бельгия
Жанр: драма, короткий метр
Год выпуска: 2012
Продолжительность: 00:17:18
Перевод: Субтитры (перевод Д. Мироновой, Éclair Group)
Cубтитры: русские
Оригинальная аудиодорожка: французский
Режиссер: Грегори Лекок / Grégory LecocqВ ролях: Полин Бризи / Pauline Brisy (Léa), Артур Бюиссен / Arthur Buyssens (Clément), Тьерри де Костер / Thierry de Coster (Père de Léa)
Описание: Подростки Леа и Клеман планировали избавиться от нежеланного ребенка, но на деле это оказалось не так просто…
Доп. информация: TV5MONDE DVB-S
Награды: 2 награды Festival Le court en dit long - Centre Wallonie-Bruxelles 2013 (лучшая женская роль - Pauline Brisy, лучший сценарий); 3 награды Lenola Film Festival 2013 (1-й приз, лучший режиссер, сценарий); приз за лучший фильм San Gio Verona VideoFestival 2013; 2-й приз за лучшую короткометражку Monfragüe Films Festival 2013.
http://www.imdb.com/title/tt2319014/
Сэмпл: http://multi-up.com/986055
Качество видео: DVB
Формат видео: MKV
Видео: MPEG Video 2, 704x576@1024x576 (16:9), 25 fps, ~4175 kbps avg, 0.412 bit/pixel
Аудио: Французский (MPEG Audio 2, 2 ch, 48 kHz, ~192.00 kbps avg)
Формат субтитров: hardsub (неотключаемые)

MediaInfo

ОбщееУникальный идентификатор : 171942342854955627870653335782511902213 (0x815AE403AFA4E5C788EAFAACEE647E05)Полное имя : E:\My Torrents 2\[apreder]MINI_MOVIES_09\[apreder]MM_Premiers_pas(2012)DVB.mkvФормат : MatroskaВерсия формата : Version 2Размер файла : 551 МбайтПродолжительность : 17 м.Режим общего битрейта : ПеременныйОбщий поток : 4455 Кбит/секДата кодирования : UTC 2014-07-13 10:37:16Программа кодирования : mkvmerge v7.0.0 ('Where We Going') 64bit built on Jun 9 2014 15:16:27Библиотека кодирования : libebml v1.3.0 + libmatroska v1.4.1
ВидеоИдентификатор : 1Формат : MPEG VideoВерсия формата : Version 2Профиль формата : Main@MainПараметр BVOP формата : НетПараметр матрицы формата : ВыборочнаяИдентификатор кодека : V_MPEG2Идентификатор кодека/Информация : MPEG 1 or 2 VideoПродолжительность : 17 м.Вид битрейта : ПеременныйБитрейт : 4175 Кбит/секМаксимальный битрейт : 5512 Кбит/секШирина : 704 пикселяВысота : 576 пикселейСоотношение сторон : 16:9Режим частоты кадров : ПостоянныйЧастота кадров : 25,000 кадров/секСтандарт вещания : PALЦветовое пространство : YUVСубдискретизация насыщенности : 4:2:0Битовая глубина : 8 битТип развёртки : ПрогрессивнаяПорядок развёртки : Верхнее поле первоеМетод сжатия : С потерямиБит/(Пиксели*Кадры) : 0.412Временной код первого кадра : 00:00:00:00Оригинал временного кода : Group of pictures headerРазмер потока : 517 Мбайт (94%)Default : ДаForced : Нет
АудиоИдентификатор : 2Формат : MPEG AudioВерсия формата : Version 1Профиль формата : Layer 2Идентификатор кодека : A_MPEG/L2Идентификатор кодека/Подсказка : MP2Продолжительность : 17 м.Вид битрейта : ПостоянныйБитрейт : 192 Кбит/секКаналы : 2 каналаЧастота : 48,0 КГцМетод сжатия : С потерямиРазмер потока : 23,8 Мбайт (4%)Язык : FrenchDefault : ДаForced : Нет

Скриншот c названием фильма

Скриншоты

Резервные скриншоты

-[1'525]
[teatrix.ru].t3990.torrent 
Торрент: Зарегистрирован [ 2015-10-07 12:13 ] · 8C482671E3AE354D99AA81F39EA245C812346088

Скачать .torrent

Скачать

11 KB

Статус: проверено
Скачан: 1 раз
Размер: 551 MB
terms.php



Быстрый ответ

Имя:

      
Для отправки сообщений необходимо включить JavaScript
Показать сообщения:    

Текущее время: 06-Дек 11:12

Часовой пояс: UTC + 3


Вы можете начинать темы
Вы можете отвечать на сообщения
Вы не можете редактировать свои сообщения
Вы не можете удалять свои сообщения
Вы не можете голосовать в опросах
Вы не можете прикреплять файлы к сообщениям
Вы можете скачивать файлы