Ответственный / El encargado (Серхио Баррихон / Sergio Barrejon) [2008, Испания, драма, короткий метр, DVDRip] VO + Sub rus + original spa


Статистика раздачи [Обновить пиров]
Размер:  146 MB   |    Зарегистрирован:  1 год 1 месяц   |    Скачан:  0 раз

Полного источника не было: Никогда

 
   
 
 
 

[Цитировать]

Ответственный / El encargado
Внимание! Добавлена дорожка с закадровым одноголосым переводом.
Страна: Испания
Жанр: драма, короткий метр
Год выпуска: 2008
Продолжительность: 00:08:24
Перевод: одноголосый закадровый
Cубтитры: русские
Оригинальная аудиодорожка: испанский
Режиссер: Серхио Баррихон / Sergio Barrejon
В ролях: Алехандро Лоренцо, Иниго ННаварес, Эдуардо Уседа, Энрике Вийен
Описание: Чёрно-белая киноновелла о том, как могут вести себя дети, если их хоть немного наделить властью. Короткометражная лента, изящная в своём исполнении, иллюстрирует самые низкие качества человеческой натуры, балансируя на грани между комичностью и жестоким сарказмом. Главные герои, такие маленькие, но уже каждый по своему злые, заставляют задуматься об истинных причинах появления в обществе таких характеров.
Доп. информация: Избранные награды и фестивали:
• Montpellier Mediterranean Film Festival, 2008 - Prix Titra Film
• Первое место, GOTHAM SCREEN Circleframe Film Awards, 2009
• Первое место, TIFF AWARDS, 2009
• 12th Auburn International Film Festival for Children and Young Adults, 2009 -TADGELL'S BLUEBELL HONOR AWARD
• Специальное упоминание, 7th International Short Film Festival ‘In the Palace’, 2009
• Номинирован на Goya Awards, 2009
Рип с этой раздачи: http://rutracker.org/forum/viewtopic.php?t=3459310
Большое спасибо yuraiter
Сэмпл: http://multi-up.com/984674
Качество видео: DVDRip
Формат видео: AVI
Видео: Xvid 720x368 25.00fps 1969kbps
Аудио 1: Dolby AC3 48000Hz stereo 256kbps Rus
Аудио 2: MPEG Audio Layer 3 48000Hz stereo 192kbps Spa
Формат субтитров: softsub (SRT)

MediaInfo

Format : AVI
Format/Info : Audio Video Interleave
File size : 146 MiB
Duration : 8mn 24s
Overall bit rate : 2 431 Kbps
Writing application : VirtualDubModRus 1.5.10.2 (build 2540/release)
Writing library : VirtualDubMod build 2540/release
Video
ID : 0
Format : MPEG-4 Visual
Format profile : Advanced Simple@L5
Format settings, BVOP : Yes
Format settings, QPel : No
Format settings, GMC : No warppoints
Format settings, Matrix : Custom
Codec ID : XVID
Codec ID/Hint : XviD
Duration : 8mn 24s
Bit rate : 1 969 Kbps
Width : 720 pixels
Height : 368 pixels
Display aspect ratio : 1.957
Frame rate : 25.000 fps
Color space : YUV
Chroma subsampling : 4:2:0
Bit depth : 8 bits
Scan type : Progressive
Bits/(Pixel*Frame) : 0.297
Stream size : 119 MiB (81%)
Writing library : XviD 1.2.0.dev47 (UTC 2006-11-01)
Audio #1
ID : 1
Format : AC-3
Format/Info : Audio Coding 3
Mode extension : CM (complete main)
Codec ID : 2000
Duration : 8mn 23s
Bit rate mode : Constant
Bit rate : 256 Kbps
Channel(s) : 2 channels
Channel positions : Front: L R
Sampling rate : 48.0 KHz
Bit depth : 16 bits
Video delay : 11s 700ms
Stream size : 15.4 MiB (10%)
Alignment : Split accross interleaves
Interleave, duration : 40 ms (1.00 video frame)
Interleave, preload duration : 500 ms
Audio #2
ID : 2
Format : MPEG Audio
Format version : Version 1
Format profile : Layer 3
Mode : Joint stereo
Mode extension : MS Stereo
Codec ID : 55
Codec ID/Hint : MP3
Duration : 8mn 24s
Bit rate mode : Constant
Bit rate : 192 Kbps
Channel(s) : 2 channels
Sampling rate : 48.0 KHz
Stream size : 11.6 MiB (8%)
Alignment : Split accross interleaves
Interleave, duration : 40 ms (1.00 video frame)
Interleave, preload duration : 500 ms
Writing library : LAME3.98

Скриншот c названием фильма

Скриншоты

[teatrix.ru].t3992.torrent 
Торрент: Зарегистрирован [ 2015-10-07 12:13 ] · 28B455E24FC172383D4E35AFC31D893B9B0E832E

Скачать .torrent

Скачать

12 KB

Статус: проверено
Скачан: 0 раз
Размер: 146 MB
terms.php



Быстрый ответ

Имя:

      
Для отправки сообщений необходимо включить JavaScript
Показать сообщения:    

Текущее время: 03-Дек 09:51

Часовой пояс: UTC + 3


Вы можете начинать темы
Вы можете отвечать на сообщения
Вы не можете редактировать свои сообщения
Вы не можете удалять свои сообщения
Вы не можете голосовать в опросах
Вы не можете прикреплять файлы к сообщениям
Вы можете скачивать файлы